Куплю друга (Александр Итыгилов (мл.)) [2009 г., Мелодрама, комедия, SATRip]

 

Создавать темы 23-Мар-2014 07:53

-Куплю друга-- Производство: Украинская Медийная Группа
Режиссер: Александр Итыгилов (мл.)
Жанр: Мелодрама, комедия
Год выпуска: 2009 г.
Продолжительность: 01:28:25
В ролях: Богдан Ступка, Алексей Зубков, Ксения Князева, Остап Ступка, Ольга Сумская, Евгений Ганелин, Ирина Мельник, Ольга Матешко, Дмитрий Суржиков, Игорь Крикунов-Описание: Ким Булатович Сычев большую часть своей активной жизни провел в Сибири на золотых приисках не забывая о родных, которые, благодаря ему, безбедно существовали все это время. И вот, спустя годы, Ким возвращается на родину, где у него есть сын, внучка и невестка Лиля - вторая жена сына. Вскоре Ким узнает, что он неизлечимо болен, и о махинациях невестки с завещанием. Чтобы изгнать аферистку из дома, Сычеву нужно ее разоблачить - доказательно и убедительно. Но для этого Киму явно не хватает друга - надежного человека. Подумав над обстоятельствами ситуации, он дает отчаянное объявление: "Куплю друга…".-Сэмпл КиноПоиск
Качество видео: SATRip
Контейнер: AVI
Видео кодек: XviD
Аудио кодек: MP3
Видео: 704х400 pixel, 1547 kbps, 25,000 fps, 0.220 bit/pixel
Аудио: 128 kbps, 2 ch, 48,0 kHz
Cубтитры: отсутствуют

Media Info

Общее
Полное имя : Kuplju.druga[pirat.ca].SATRip
Формат : AVI
Формат/Информация : Audio Video Interleave
Размер файла : 1,04 Гбайт
Продолжительность : 1 ч. 28 м.
Общий поток : 1685 Кбит/сек
Программа кодирования : VirtualDubMod 1.5.10.3 (build 2550/release)
Библиотека кодирования : VirtualDubMod build 2550/release
Видео
Идентификатор : 0
Формат : MPEG-4 Visual
Профиль формата : Advanced [email protected]
Параметр BVOP формата : 2
Параметр QPel формата : Нет
Параметр GMC формата : Без точки перехода
Параметр матрицы формата : Выборочная
Режим смешивания : Сжатый битовый поток
Идентификатор кодека : XVID
Идентификатор кодека/Подсказка : XviD
Продолжительность : 1 ч. 28 м.
Битрейт : 1547 Кбит/сек
Ширина : 704 пикселя
Высота : 400 пикселей
Соотношение сторон : 16:9
Частота кадров : 25,000 кадров/сек
Цветовое пространство : YUV
Субдискретизация насыщенности : 4:2:0
Битовая глубина : 8 бит
Тип развёртки : Прогрессивная
Метод сжатия : С потерями
Бит/(Пиксели*Кадры) : 0.220
Размер потока : 979 Мбайт (92%)
Библиотека кодирования : XviD 62
Аудио
Идентификатор : 1
Формат : MPEG Audio
Версия формата : Version 1
Профиль формата : Layer 3
Режим : Joint stereo
Расширение режима : MS Stereo
Идентификатор кодека : 55
Идентификатор кодека/Подсказка : MP3
Продолжительность : 1 ч. 28 м.
Вид битрейта : Постоянный
Битрейт : 128 Кбит/сек
Каналы : 2 канала
Частота : 48,0 КГц
Метод сжатия : С потерями
Размер потока : 81,0 Мбайт (8%)
Выравнивание : Разделение по промежуткам
Продолжительность промежутка : 40 мс. (1,00 видеокадр)
Время предзагрузки промежутка : 500 мс.

Скриншот c названием фильма

Скриншоты

Яндекс.Метрика
Рейтинг@Mail.ru