Я не смогу тебя забыть (Максим Демченко)(2014,Мелодрама) SATRip (серий 1-4 из 4)

 

Создавать темы 27-Мар-2014 14:00

-Я не смогу тебя забыть (2014) SATRip (серий 1-4 из 4)- Оригинальное название: Я не смогу тебя забыть
Год выпуска: 2014
Премьера: 23 марта 2014 (Интер, Украина)
Жанр: Мелодрама
Выпущено: Медиапрофсоюз
Режиссер: Максим Демченко
В ролях: Олеся Грибок, Александр Пашков, Дмитрий Панфилов, Юлия Кудояр, Алексей Симонов, Евгения Оробей

Описание:
Полина и ее отец живут в станице неподалеку от моря. Полине 19, она работает медсестрой, а отец занимается фермерством. Здесь же живет Михаил - он держится чужаком, и у него репутация человека с темным прошлым. Однако, когда в жизни Полины происходят одно за другим несчастья, именно Михаил приходит ей на помощь. Сблизившись с ним, Полина узнает, что в прошлом Михаил пережил семейную драму, из-за которой он угодил в тюрьму, и на самом деле он вовсе не "злодей", как говорят о нем в станице. Обстоятельства заставляют Полину уехать из станицы и устроиться горничной в гостиницу на берегу моря. Здесь Полина встречает свою первую любовь - Вадима, он сын хозяина гостиницы. Бурный роман вот-вот закончится свадьбой. Но планы влюбленных вдруг рушатся. Полине предстоит пройти через множество испытаний, прежде чем судьба вернет ей любимого - Вадима. Выстоять во всех невзгодах Полине поможет "чужак и злодей" Михаил. И девушке рано или поздно придется сделать выбор - кто из этих двух очень разных мужчин дорог ей по-настоящему...
Качество: SATRip
Видео: XviD, ~ 1500 Кбит/с, 704x368
Аудио: MP3, 2 ch, 128 Кбит/с
Продолжительность: 4 x ~ 00:43:00

MediaInfo

Формат : AVI
Формат/Информация : Audio Video Interleave
Размер файла : 481 Мбайт
Продолжительность : 41 м.
Общий поток : 1633 Кбит/сек
Программа кодирования : VirtualDubMod 1.5.10.2 (build 2540/release)
Библиотека кодирования : VirtualDubMod build 34703/release
Видео
Идентификатор : 0
Формат : MPEG-4 Visual
Профиль формата : Advanced [email protected]
Параметр BVOP формата : 2
Параметр QPel формата : Нет
Параметр GMC формата : Без точки перехода
Параметр матрицы формата : Default (MPEG)
Muxing mode : Packed bitstream
Идентификатор кодека : XVID
Идентификатор кодека/Подсказка : XviD
Продолжительность : 41 м.
Битрейт : 1495 Кбит/сек
Ширина : 704 пикселя
Высота : 368 пикселя
Соотношение сторон : 1,913
Частота кадров : 25,000 кадров/сек
Цветовое пространство : YUV
Субдискретизация насыщенности : 4:2:0
Битовая глубина : 8 бит
Тип развёртки : Прогрессивная
Метод сжатия : С потерями
Бит/(Пиксели*Кадры) : 0.231
Размер потока : 440 Мбайт (92%)
Библиотека кодирования : XviD 64
Аудио
Идентификатор : 1
Формат : MPEG Audio
Версия формата : Version 1
Профиль формата : Layer 3
Режим : Joint stereo
Идентификатор кодека : 55
Идентификатор кодека/Подсказка : MP3
Продолжительность : 41 м.
Вид битрейта : Постоянный
Битрейт : 128 Кбит/сек
Каналы : 2 канала
Частота : 48,0 КГц
Метод сжатия : С потерями
Размер потока : 37,8 Мбайт (8%)
Выравнивание : Соединение по промежуткам
Продолжительность промежутка : 40 мс. (1,00 видеокадр)
Время предзагрузки промежутка : 504 мс.
Библиотека кодирования : LAME3.90.3
Скриншоты:
Яндекс.Метрика
Рейтинг@Mail.ru