Гольфстрим под айсбергом (Евгений Пашкевич) [2012 г., фэнтези, драма, DVDRip] (Лицензия)

 

Создавать темы 14-Апр-2014 02:30

-Гольфстрим под айсбергом- Производство: Россия, Латвия / Nida Filma, Horosho Production, Latvijas Nacionalais Kino Centrs
Жанр: фэнтези, драма
Год выпуска: 2012 г.
Продолжительность: 02:00:07
Российская премьера: 26 июня 2012
Дата выхода DVD: 20 марта 2014, «Cinema Prestige»-Режиссер: Евгений Пашкевич
В ролях: Анна Азарова, Андрей Терентьев, Алла Юганова, Федор Черных, Дмитрий Волкострелов, Данила Козловский, Ольга Шепицкая, Вилле Хаапасал, Любомирас Лауцявичюс, Юрий Цурило-Описание: Киноальманах состоит из 3-х новелл, объединенных мифом о Лилит, первой жене Адама, упоминаемой в древних преданиях Востока, в Талмуде, каббалистике Средневековья. Автор задумал фильм как эротическую притчу о вековечном противостоянии Человека и Матери-природы, ненасытной в своей жажде рождать и уничтожать.
По легендам, Лилит была создана, как и Адам, из глины. В ссоре она покинула его, поэтому не запятнана первородным грехом и избежала проклятия. У нее нет души, она бессмертна. Она принимает любой облик, овладевает мужчинами против их воли и покидает, когда захочет, обрекая их на тоску и погибель. Что бы она ни делала, это не является ни Добром, ни Злом. Она — другого естества…-Сэмпл КиноПоиск-Качество видео: DVDRip
Контейнер: AVI
Видео кодек: XviD
Аудио кодек: AC3
Видео: 720x400 (1.80:1), 25 fps, XviD build 50 ~2050 kbps avg, 0.28 bit/pixel
Аудио: 48 kHz, AC3 Dolby Digital, 3/2 (L,C,R,l,r) + LFE ch, ~384 kbps
Cубтитры: отсутствуют

Media Info

General
Complete name                            : D:\Goljfstrim.pod.ajsbergom.2012.O.DVDRip.2100Mb.avi
Format                                   : AVI
Format/Info                              : Audio Video Interleave
Format profile                           : OpenDML
File size                                : 2.05 GiB
Duration                                 : 2h 0mn
Overall bit rate                         : 2 442 Kbps
Writing application                      : VirtualDubMod 1.5.10.3 | www.virtualdub-fr.org || (build 2550/release)
Writing library                          : VirtualDubMod build 2550/release
Video
ID                                       : 0
Format                                   : MPEG-4 Visual
Format profile                           : Advanced [email protected]
Format settings, BVOP                    : 2
Format settings, QPel                    : No
Format settings, GMC                     : No warppoints
Format settings, Matrix                  : Default (MPEG)
Codec ID                                 : XVID
Codec ID/Hint                            : XviD
Duration                                 : 2h 0mn
Bit rate                                 : 2 045 Kbps
Width                                    : 720 pixels
Height                                   : 400 pixels
Display aspect ratio                     : 16:9
Frame rate                               : 25.000 fps
Color space                              : YUV
Chroma subsampling                       : 4:2:0
Bit depth                                : 8 bits
Scan type                                : Progressive
Compression mode                         : Lossy
Bits/(Pixel*Frame)                       : 0.284
Stream size                              : 1.72 GiB (84%)
Writing library                          : XviD 1.2.1 (UTC 2008-12-04)
Audio
ID                                       : 1
Format                                   : AC-3
Format/Info                              : Audio Coding 3
Mode extension                           : CM (complete main)
Format settings, Endianness              : Big
Codec ID                                 : 2000
Duration                                 : 2h 0mn
Bit rate mode                            : Constant
Bit rate                                 : 384 Kbps
Channel(s)                               : 6 channels
Channel positions                        : Front: L C R, Side: L R, LFE
Sampling rate                            : 48.0 KHz
Bit depth                                : 16 bits
Compression mode                         : Lossy
Stream size                              : 330 MiB (16%)
Alignment                                : Split accross interleaves
Interleave, duration                     : 40 ms (1.00 video frame)
Interleave, preload duration             : 500 ms

Скриншоты

Яндекс.Метрика
Рейтинг@Mail.ru