Призраки Гарри Пэйна: Зло не умрет никогда / The Haunting of Harry Payne (Мартин Пик / Martyn Pick) [2014 г., ужасы, триллер, DVDRip] DVO (DeadSno & den904) + Original (Eng)

 

Создавать темы 18-Апр-2014 04:32

-Призраки Гарри Пэйна: Зло не умрет никогда / The Haunting of Harry Payne-- Производство: Великобритания
Год выпуска: 2014 г.
Жанр: ужасы, триллер
Продолжительность: 01:13:17
Мировая премьера: 13 января 2014
Перевод: Любительский (двухголосый, закадровый) [DeadSno & den904]
Оригинальный аудиопоток: английский
Режиссер: Мартин Пик / Martyn Pick-В ролях: Тони Сканнелл, Грэм Коул, Анушка Монд, Флис Волтон, Кэти Мэннинг, П.Х. Мориарти, Нил Мэскелл, Майкл Эстон, Питер Барфилд, Джуди Дэйкин-Описание: Один из влиятельных гангстеров, отсидев 10-летний срок, возвращается домой, где его преследуют кровавые призраки прошлого, о которых не только нельзя забыть, но и практически невозможно избавиться.-
Качество видео: DVDRip
Контейнер: AVI
Видео кодек: XviD
Аудио кодек: AC3
Видео: XviD, 2094 kb/s, 720x320 (2.25:1), 25.00 fps, 0.364 bit / pix
Аудио: Rus: 48 kHz, AC3 Dolby Digital, 2/0 (L,R) ch, ~192 kbps DVO (DeadSno & den904)
Аудио 2: Eng: 48 kHz, AC3 Dolby Digital, 3/2 (L,C,R,l,r) + LFE ch, ~448 kbps (Original)
Cубтитры: отсутствуют

Media Info

General
Complete name : W:\The.Haunting.Of.Harry.Payne.DVDRip.2014.avi
Format : AVI
Format/Info : Audio Video Interleave
File size : 1.41 GiB
Duration : 1h 13mn
Overall bit rate : 2 748 Kbps
Writing application : VirtualDubMod 1.5.10.2 (build 2542/release)
Writing library : VirtualDubMod build 2542/release
Video
ID : 0
Format : MPEG-4 Visual
Format profile : Advanced [email protected]
Format settings, BVOP : Yes
Format settings, QPel : No
Format settings, GMC : No warppoints
Format settings, Matrix : Default (H.263)
Muxing mode : Packed bitstream
Codec ID : XVID
Codec ID/Hint : XviD
Duration : 1h 13mn
Bit rate : 2 094 Kbps
Width : 720 pixels
Height : 320 pixels
Display aspect ratio : 2.25:1
Frame rate : 25.000 fps
Color space : YUV
Chroma subsampling : 4:2:0
Bit depth : 8 bits
Scan type : Progressive
Bits/(Pixel*Frame) : 0.364
Stream size : 1.07 GiB (76%)
Writing library : XviD 1.2.1 (UTC 2008-12-04)
Audio #1
ID : 1
Format : AC-3
Format/Info : Audio Coding 3
Mode extension : CM (complete main)
Codec ID : 2000
Duration : 1h 13mn
Bit rate mode : Constant
Bit rate : 192 Kbps
Channel(s) : 2 channels
Channel positions : Front: L R
Sampling rate : 48.0 KHz
Bit depth : 16 bits
Stream size : 101 MiB (7%)
Alignment : Split accross interleaves
Interleave, duration : 40 ms (1.00 video frame)
Interleave, preload duration : 500 ms
Audio #2
ID : 2
Format : AC-3
Format/Info : Audio Coding 3
Mode extension : CM (complete main)
Codec ID : 2000
Duration : 1h 13mn
Bit rate mode : Constant
Bit rate : 448 Kbps
Channel(s) : 6 channels
Channel positions : Front: L C R, Side: L R, LFE
Sampling rate : 48.0 KHz
Bit depth : 16 bits
Stream size : 235 MiB (16%)
Alignment : Aligned on interleaves
Interleave, duration : 40 ms (1.00 video frame)
Interleave, preload duration : 512 ms

Скриншоты

Яндекс.Метрика
Рейтинг@Mail.ru