Залётчики (Кирилл Кузин) [2014, Комедия, WEB-Rip] (720p)

 

Создавать темы 19-Апр-2014 13:04

Залётчики - Год выпуска: 2014
Производство: Россия
Жанр: Комедия
Перевод: Оригинал
Дата мировой премьеры: 20 марта 2014
Дата российской премьеры: 20 марта 2014
Дата выхода DVD релиза: 24 апреля 2014
Режиссер: Кирилл Кузин
Актеры: Илья Глинников, Вано Тугуши, Екатерина Кузнецова, Гоша Куценко, Вадим Галыгин, Виктор Вержбицкий, Алексей Горбунов, Юрий Цурило, Александр Веремюк, Карел Добры
Описание фильма:
Комедия о том, как два незадачливых героя, один из которых мечтал стать летчиком, а другой актером, случайно получают шанс исполнить обе мечты разом на съемочной площадке нового фильма. Однако в первой же сцене они умудряются разбить вертолет спонсора, что сулит им массу проблем. Чтобы возместить ущерб приятели вынуждены пуститься во все тяжкие — попытаться ограбить олигарха, заработать натурой и даже попробовать угнать вертолет с американской авиабазы.

http://www.kinopoisk.ru/film/701526
Продолжительность: 01:19:13
Качество видео: WEB-Rip 720p
Видеокодек: MPEG-4 AVC/H.264
Битрейт видео: ~4500 Кбит/с
Размер кадра: 1280x720
Аудиокодек: AC3 2.0
Битрейт аудио: 192 Кбит/с
Сэмпл: Скачать

Media Info:

Video
ID : 1
Format : AVC
Format/Info : Advanced Video Codec
Format profile : [url=mailto:[email protected]][email protected][/url]
Format settings, CABAC : Yes
Format settings, ReFrames : 11 frames
Codec ID : V_MPEG4/ISO/AVC
Duration : 1h 19mn
Bit rate : 4 500 Kbps
Width : 1 280 pixels
Height : 720 pixels
Display aspect ratio : 16:9
Frame rate mode : Constant
Frame rate : 25.000 fps
Color space : YUV
Chroma subsampling : 4:2:0
Bit depth : 8 bits
Scan type : Progressive
Bits/(Pixel*Frame) : 0.195
Stream size : 2.44 GiB (94%)
Title : ZALET4IKI_WEB_DL-BLUEBIRD
Writing library : x264 core 130 r2273 b3065e6
Encoding settings : cabac=1 / ref=11 / deblock=1:-2:-1 / analyse=0x3:0x133 / me=umh / subme=10 / psy=1 / psy_rd=1.00:0.20 / mixed_ref=1 / me_range=24 / chroma_me=1 / trellis=2 / 8x8dct=1 / cqm=0 / deadzone=21,11 / fast_pskip=1 / chroma_qp_offset=-3 / threads=9 / lookahead_threads=1 / sliced_threads=0 / nr=0 / decimate=1 / interlaced=0 / bluray_compat=0 / constrained_intra=0 / bframes=4 / b_pyramid=2 / b_adapt=2 / b_bias=0 / direct=3 / weightb=1 / open_gop=0 / weightp=2 / keyint=250 / keyint_min=25 / scenecut=40 / intra_refresh=0 / rc_lookahead=60 / rc=2pass / mbtree=1 / bitrate=4500 / ratetol=1.0 / qcomp=0.60 / qpmin=0 / qpmax=69 / qpstep=4 / cplxblur=20.0 / qblur=0.5 / ip_ratio=1.40 / aq=1:1.00
Language : English
Default : No
Forced : No
Audio
ID : 2
Format : AC-3
Format/Info : Audio Coding 3
Format profile : Dolby Digital
Mode extension : CM (complete main)
Format settings, Endianness : Big
Codec ID : A_AC3
Duration : 1h 19mn
Bit rate mode : Constant
Bit rate : 192 Kbps
Channel(s) : 2 channels
Channel positions : Front: L R
Sampling rate : 48.0 KHz
Bit depth : 16 bits
Compression mode : Lossy
Stream size : 109 MiB (4%)
Title : DD STEREO @ 192 kbps
Language : Russian
Default : Yes
Forced : No
Скриншоты:
Яндекс.Метрика
Рейтинг@Mail.ru