Беглецы / Les Fugitifs (Франсис Вебер / Francis Veber) [1986 г., комедия, криминал, BDRip, 1080p] Dub + MVO (CP Digital, ОРТ) + Original (Fre) + Sub (Rus)

 

Создавать темы 20-Апр-2014 06:29

-Беглецы / Les Fugitifs
«The oddest 'odd couple' from 'Les Comperes' are back in a gag-filled comic masterpiece of role reversal and farcical misadventure»
-- Производство: Франция | Fideline Films, DD Productions, EFVE Films, Orly Films
Год выпуска: 1986 г.
Жанр: комедия, криминал
Продолжительность: 01:29:11
Мировая премьера: 17 декабря 1986
Дата выхода Blu-Ray: 02 января 2014
Перевод: Профессиональный (полное дублирование) [СССР]
Перевод 2: Профессиональный (многоголосый, закадровый) [CP-Digital]
Перевод 3: Профессиональный (многоголосый, закадровый) [ОРТ]
Оригинальный аудиопоток: французский
Режиссер: Франсис Вебер / Francis Veber-В ролях: Пьер Ришар, Жерар Депардье, Жан Карме, Морис Барье, Жан Бенгиги, Ролан Бланш, Анаис Бре, Филипп Лельевр, Ивелин Айо, Дидье Пэн-Описание: Нескладный грабитель банка захватывает в заложники бывшего «крутого» заключенного. Полиция бросается за ними в погоню, герои меняются ролями. «Заложник» становится нянькой «похитителя» и «отцом» его немой дочери. Теперь «крутой», который сидел за 14 ограблений банков твердо решил «завязать». Он помогает странной семейке скрываться от полиции, навлекая на себя массу новых проблем. Но, в награду ему будет атмосфера семейной любви, о чем он не имел понятия, и даже маленькое чудо, произошедшее с немой девочкой...
-Качество видео: BDRip
Контейнер: MKV
Стандарт разрешения: 1080p
Видео кодек: H.264/AVC
Аудио кодек: AC3, DTS
Видео: 1920х1080, 24,000 fps, ~10.2 Mbps avg
Аудио: Russian: AC3, 2.0 ch, 48 kHz, ~192 kbps (Советский Дубляж)
Аудио #2: Russian: AC3, 5.1 ch, 48 kHz, ~448 kbps (Многоголосый закадровый, CP-Digital)
Аудио #3: Russian: AC3, 2.0 ch, 48 kHz, ~192 kbps (многоголосый закадровый ОРТ)
Аудио #4: French: 48 kHz, DTS, 3/2 (L,C,R,l,r) + LFE ch, ~1510.00 kbps avg
Cубтитры: русские

Media Info

General
Complete name                    : J:\Uploads\Pirat.Ca\Les.Fugitifs.1986.1080p.BDRip.3xRus.Fre.mkv
Format                           : Matroska
File size                        : 7.81 GiB
Duration                         : 1h 29mn
Overall bit rate                 : 12.5 Mbps
Movie name                       : Les Fugitifs (1986) - Release for PIRAT.CA
Encoded date                     : UTC 2014-04-19 08:49:34
Writing application              : mkvmerge v6.0.0 ('Coming Up For Air') built on Jan 20 2013 09:52:00
Writing library                  : libebml v1.3.0 + libmatroska v1.4.0
Video
ID                               : 1
Format                           : AVC
Format/Info                      : Advanced Video Codec
Format profile                   : [email protected]
Format settings, CABAC           : Yes
Format settings, ReFrames        : 4 frames
Format settings, GOP             : M=6, N=9
Muxing mode                      : Container [email protected]
Codec ID                         : V_MPEG4/ISO/AVC
Duration                         : 1h 29mn
Bit rate                         : 10.2 Mbps
Width                            : 1 920 pixels
Height                           : 1 080 pixels
Display aspect ratio             : 16:9
Frame rate                       : 24.000 fps
Color space                      : YUV
Chroma subsampling               : 4:2:0
Bit depth                        : 8 bits
Scan type                        : Progressive
Bits/(Pixel*Frame)               : 0.205
Stream size                      : 6.20 GiB (79%)
Title                            : Les Fugitifs (1986)
Writing library                  : x264 core 138 r2358 9e941d1
Encoding settings                : cabac=1 / ref=4 / deblock=1:-3:-3 / analyse=0x3:0x113 / me=umh / subme=11 / psy=1 / psy_rd=1.00:0.00 / mixed_ref=1 / me_range=32 / chroma_me=1 / trellis=2 / 8x8dct=1 / cqm=0 / deadzone=21,11 / fast_pskip=1 / chroma_qp_offset=-2 / threads=12 / lookahead_threads=1 / sliced_threads=0 / nr=0 / decimate=1 / interlaced=0 / bluray_compat=0 / constrained_intra=0 / bframes=5 / b_pyramid=2 / b_adapt=1 / b_bias=0 / direct=2 / weightb=1 / open_gop=0 / weightp=2 / keyint=240 / keyint_min=24 / scenecut=40 / intra_refresh=0 / rc_lookahead=40 / rc=2pass / mbtree=1 / bitrate=10200 / ratetol=1.0 / qcomp=0.60 / qpmin=10 / qpmax=51 / qpstep=4 / cplxblur=20.0 / qblur=0.5 / vbv_maxrate=62500 / vbv_bufsize=78125 / nal_hrd=none / ip_ratio=1.40 / aq=1:1.00
Language                         : English
Audio #1
ID                               : 2
Format                           : AC-3
Format/Info                      : Audio Coding 3
Mode extension                   : CM (complete main)
Codec ID                         : A_AC3
Duration                         : 1h 29mn
Bit rate mode                    : Constant
Bit rate                         : 192 Kbps
Channel(s)                       : 2 channels
Channel positions                : Front: L R
Sampling rate                    : 48.0 KHz
Bit depth                        : 16 bits
Stream size                      : 122 MiB (2%)
Title                            : DUB
Language                         : Russian
Audio #2
ID                               : 3
Format                           : AC-3
Format/Info                      : Audio Coding 3
Mode extension                   : CM (complete main)
Codec ID                         : A_AC3
Duration                         : 1h 29mn
Bit rate mode                    : Constant
Bit rate                         : 448 Kbps
Channel(s)                       : 6 channels
Channel positions                : Front: L C R, Side: L R, LFE
Sampling rate                    : 48.0 KHz
Bit depth                        : 16 bits
Stream size                      : 286 MiB (4%)
Title                            : MVO CP-Digital
Language                         : Russian
Audio #3
ID                               : 4
Format                           : AC-3
Format/Info                      : Audio Coding 3
Mode extension                   : CM (complete main)
Codec ID                         : A_AC3
Duration                         : 1h 29mn
Bit rate mode                    : Constant
Bit rate                         : 192 Kbps
Channel(s)                       : 2 channels
Channel positions                : Front: L R
Sampling rate                    : 48.0 KHz
Bit depth                        : 16 bits
Stream size                      : 122 MiB (2%)
Title                            : MVO ОРТ
Language                         : Russian
Audio #4
ID                               : 5
Format                           : DTS
Format/Info                      : Digital Theater Systems
Codec ID                         : A_DTS
Duration                         : 1h 29mn
Bit rate mode                    : Constant
Bit rate                         : 1 510 Kbps
Channel(s)                       : 2 channels
Channel positions                : Front: L R
Sampling rate                    : 48.0 KHz
Bit depth                        : 24 bits
Stream size                      : 963 MiB (12%)
Title                            : Original
Language                         : French
Text
ID                               : 6
Format                           : UTF-8
Codec ID                         : S_TEXT/UTF8
Codec ID/Info                    : UTF-8 Plain Text
Language                         : Russian
Menu
00:00:00.000                     : en:00:00:00.000
00:07:39.083                     : en:00:07:39.083
00:14:07.417                     : en:00:14:07.417
00:20:29.250                     : en:00:20:29.250
00:30:50.375                     : en:00:30:50.375
00:39:40.375                     : en:00:39:40.375
00:44:44.167                     : en:00:44:44.167
00:53:26.792                     : en:00:53:26.792
00:59:07.458                     : en:00:59:07.458
01:07:09.083                     : en:01:07:09.083
01:15:30.458                     : en:01:15:30.458
01:21:29.958                     : en:01:21:29.958

Скриншоты

Яндекс.Метрика
Рейтинг@Mail.ru