Тайны Тихого Океана / BBC: South Pacific (6 серий) (Джонатан Клэй / Jonathan Clay) [2009 г., документальный, HDDVDRip, 720p] [+bonus "Океаны" HD] VO

 

Создавать темы 23-Апр-2014 20:34

-Тайны Тихого океана / BBC: South Pacific +Bonus "Океаны" HD-- Производство: Великобритания, BBC
Жанр: документальный
Год выпуска: 2009 г.
Продолжительность: 6х 00:49:55
Мировая премьера: 10 мая 2009
Российская премьера: 10 мая 2009
Дата выхода DVD: 3 ноября 2010
Перевод: Профессиональный (одноголосый, закадровый)
Автор(ы) перевода: Бенедикт Камбербэтч
Режиссер: Джонатан Клэй / Jonathan Clay-В ролях: Бенедикт Камбербэтч
Майк Роу
Бали Стриклэнд
Рудольф Дизель
Хув Корди
Вэйд Фэйрли
Джон Этчисон
Даг Перрин-Описание: Один океан... 20 тысяч островов... Четверть общего количества воды в мире... Это южная часть Тихого океана. Его название общеизвестно, но и через 230 лет после эпического путешествия капитана Кука этот обширный океан остается малоизученным. В этой бескрайней синеве отдельные острова - приют для разнообразной редкой живности. И это один из самых чистых океанов. Бирюзовое море, острова как на открытках - похоже на земной рай. Но все не так, как кажется...

Описание серий

Серия 1: Океан островов / Ocean of Islands
Южные острова Тихого океана – одно из самых отдаленных мест на нашей планете. На этом небольшом кусочке земного рая жизнь протекает по своему сценарию. Неукротимые тропические штормы, часто сменяющиеся снежными бурями, прекрасно балансируют с многообразием живой природы. Не менее разнородна и человеческая культура: здесь расположились удивительные сообщества людей с самыми необычными традициями. Это не тронутое цивилизацией место таит в себе массу интереснейших невероятных фактов и открытий…
Серия 2: Переселенцы / Castaways
Острова Тихого океана – самые удаленные в мире. До некоторых из них расстояние больше 6-ти тысяч километров от ближайшего континента. Но, тем не менее, все они оказались заселены: сначала растениями и животными, а потом людьми. Кто же были эти переселенцы, и как они достигли дальних участков суши?...
Серия 3: Бескрайняя синева / Endless blue
Южная часть Тихого океана - обширное водное пространство, населенное разнообразным животным миром - от огромных белых акул до крошечных моллюсков. Тропические коралловые рифы поражают своим разнообразием и красотой. Но в этой бескрайней синеве многим хищникам нужно бороться за выживание: порой тигровым акулам и китам приходится проплывать сотни миль в поисках пищи…
Серия 4: Океан вулканов / Ocean of Volcanoes
По Тихому океану разбросаны тысячи крошечных островков, которые выглядят неброско. Когда-то они были горами, вздымавшимися над волнами, и славящимися разнообразием растительного и животного мира. А сейчас они едва поднимаются над поверхностью воды. Что же произошло с этими "тихоокеанскими горами"?...
Серия 5: Странные острова / Strange Islands
На удаленных и оторванных от мира тихоокеанских островах – своя жизнь. Животные там эволюционируют самыми необычным и удивительным образом: кенгуру лазают по деревьям, а летучие мыши роют себе норы. Но за обитание на этих странных островах иногда приходится дорого платить. С появлением новых видов, начинается настоящая борьба за выживание…
Серия 6: Хрупкий рай / Fragile Paradise
В глубинах Тихого океана таится необычайный мир, почти невидимый людям - прекрасный и загадочный. Там, среди уникальных растений, обитают удивительные водные животные! Но с каждым днем исчезающих видов рыб становится все больше. Эта серия посвящена тому, как спасти их от вымирания и сохранить хрупкий рай…
+ Bonus "Океаны" HD
В глубинах мирового океана сокрыты величайшие тайны, связанные с историей нашей планеты, человечества и, наконец, происхождением жизни на Земле. Международная команда подводных исследователей отправляется в грандиозную экспедицию, чтобы попытаться раскрыть некоторые из них. Археология, геология, морская биология и антропология - все эти науки тесно переплетаются между собой в этом захватывающем сериале. В каждой его серии ученые разгадывают интригующие загадки, сталкиваются с реальной опасностью, а изумительные и ошеломляющие подводные съемки показывают зрителю всю красоту этого непознанного мира. От теплого нежно-бирюзового Карибского моря до ледяных вод Арктики, исследователи наблюдают за тем, что же происходит на территории, которая покрывает большую часть нашей планеты.
-
Качество видео: HDTVRip
Формат видео: MKV
Стандарт разрешения: 720p
Видео кодек: H.264
Аудио кодек: AC3
Видео: 1280x720 (16:9), 3183 Кбит/сек, 25 кадр/сек
Аудио: 384 Кбит/с, 6 ch, 48,0 КГц
Cубтитры: отсутствуют

Рецензия

В далеком нумизматическом детстве каждый, кто гордо предъявлял одноклассникам монетки со звучными надписями «Палау», «Фиджи», «Соломоновы острова» получал к своей карме бонус, стремящийся к бесконечности. Это не тривиальные пфенниги или злотые, это что-то иррациональное. Потом не одну переменку толпились у политической карты, отыскивая среди бесконечного голубого цвета Тихого Океана затерянные разноцветные капельки туземных государств.
Глядишь, и через годы те диковинные названия нет-нет да и всплывут в памяти. Особенно, если поводом к этому служит очередной шедевр от ВВС. Шесть серий макро- и микросъёмок, щедро сдобренных современными спецэффектами, переносят в сказку легких бризов и грозных цунами, калейдоскопических анемонов и неоперившихся альбатросов, неприхотливых аборигенов и модерновых сейнеров.
Такие документальные сериалы необходимо смотреть в наилучшем разрешении. Вместо сеанса психотерапии. Познавательный эффект фильма, может, и не разглядит какой-нибудь новоиспеченный Федор Двинятин, а вот эстетический будет доступен каждому. Полифония и многоцветие умножено рапидными съёмками со всевозможных ракурсов. Хотите увидеть размножение моллюсков — милости просим, хотите быть свидетелем зарождения вулканических островов — нет проблем.
В первой серии «Океан островов» мы пролетаем галопам по южной части Тихого океана. Пингвинов сменяют неповоротливые морские слоны. Рабочие будни острова Анута и окаменевшее прошлое острова Пасхи. Везде всё неповторимое, уникальное и далёкое от причуд цивилизации.
Вторая часть «Переселенцы» пронизано нитью интереса, как это за тридевять земель появляются на островах разная живность, от пресноводных рыб до потомков Лапита. Стартовая площадка Папуа Новая Гвинея предоставила возможность различных комбинаций живых организмов, в результате чего каждый остров является оригинальным в области флоры и фауны.
Третий фрагмент «Бескрайная синева» посвящен рифам. Нескончаемая постройка атоллов и огромная коммуналка, раскрашенная всеми оттенками переливающегося спектра. Причем склок у акул и морских окуней гораздо меньше, чем у более разумных существ.
Легкость существования утяжеляется четвертой серией «Океан вулканов». Бесконечный бой лавы с водой приводил к вычурным результатам, последствия которых можно наблюдать во всем безграничии.
«Странные острова» переворачивают своей жизнью сформированные стереотипы. Кенгуру лазают по деревьям, а летучие мыши роют себе норы. Эксперимент по созданию вселенных не утихает в природных лабораториях ни на минуту. Особенно, если этому благоприятствует отсутствие одного назойливого представителя гоминидов.
И завершает сагу «Хрупкий рай». Чем больше научно-техническая рука охватывает различные уголки нашей планеты, тем больше проблем появляется там. Исчезают диковинные виды, нарушается баланс, тускнеет хрусталь четвертой части мирового запаса воды. Прям как у «Смешариков» — море же такое большое, его на всех хватит.
У документальных фильмов ВВС намечается в перспективе гигантская проблема. Очень трудно с каждым годов совершенствовать идеал. Что же нас будет ждать через какой-нибудь десяток лет, когда будет выработана вся золотая жила природной визуалистики. Или бесконечность не предел?

Media Info

Общее
Уникальный идентификатор : 193831240804895073696641734850109556239 (0x91D28A014DAA8523B274DA7E4744C60F)
Полное имя : D:\Отстойник\Тайны Тихого Океана[pirat.ca]\01 Океан островов[pirat.ca].mkv
Формат : Matroska
Версия формата : Version 1
Размер файла : 1,11 Гбайт
Продолжительность : 49 м.
Общий поток : 3183 Кбит/сек
Дата кодирования : UTC 2009-09-08 06:13:34
Программа кодирования : mkvmerge v2.1.0 ('Another Place To Fall') built on Aug 19 2007 13:40:07
Библиотека кодирования : libebml v0.7.7 + libmatroska v0.8.1
Видео
Идентификатор : 1
Формат : AVC
Формат/Информация : Advanced Video Codec
Профиль формата : [email protected]
Параметр CABAC формата : Да
Параметр ReFrames формата : 2 кадра
Идентификатор кодека : V_MPEG4/ISO/AVC
Продолжительность : 49 м.
Битрейт : 2857 Кбит/сек
Ширина : 1280 пикселей
Высота : 720 пикселей
Соотношение сторон : 16:9
Режим частоты кадров : Постоянный
Частота кадров : 25,000 кадров/сек
Цветовое пространство : YUV
Субдискретизация насыщенности : 4:2:0
Битовая глубина : 8 бит
Тип развёртки : Прогрессивная
Бит/(Пиксели*Кадры) : 0.124
Размер потока : 977 Мбайт (86%)
Библиотека кодирования : x264 core 67 r1145M d2e1e1c
Настройки программы : cabac=1 / ref=1 / deblock=1:0:0 / analyse=0x3:0x113 / me=hex / subme=5 / psy_rd=0.0:0.0 / mixed_ref=0 / me_range=16 / chroma_me=1 / trellis=0 / 8x8dct=1 / cqm=0 / deadzone=21,11 / chroma_qp_offset=0 / threads=12 / nr=0 / decimate=1 / mbaff=0 / bframes=3 / b_pyramid=0 / b_adapt=1 / b_bias=0 / direct=3 / wpredb=1 / keyint=250 / keyint_min=25 / scenecut=40 / rc=2pass / bitrate=2857 / ratetol=1.0 / qcomp=0.50 / qpmin=10 / qpmax=51 / qpstep=4 / cplxblur=20.0 / qblur=0.5 / vbv_maxrate=24000 / vbv_bufsize=24000 / ip_ratio=1.10 / pb_ratio=1.10 / aq=1:1.00
Default : Да
Forced : Нет
Аудио
Идентификатор : 2
Формат : AC-3
Формат/Информация : Audio Coding 3
Расширение режима : CM (complete main)
Параметр Endianness формата : Big
Идентификатор кодека : A_AC3
Продолжительность : 49 м.
Вид битрейта : Постоянный
Битрейт : 384 Кбит/сек
Каналы : 6 каналов
Расположение каналов : Front: L C R, Side: L R, LFE
Частота : 48,0 КГц
Битовая глубина : 16 бит
Метод сжатия : С потерями
Размер потока : 137 Мбайт (12%)
Заголовок : okean.ostrovov_by_nyctalus
Язык : Russian
Default : Да
Forced : Нет
Общее
Уникальный идентификатор : 174099490442389767212427872031994180761 (0x82FA579A0FF9F46C867D8E4FF1867499)
Полное имя : D:\Отстойник\Тайны Тихого Океана[pirat.ca]\02 Переселенцы[pirat.ca].mkv
Формат : Matroska
Версия формата : Version 1
Размер файла : 1,24 Гбайт
Продолжительность : 49 м.
Режим общего битрейта : Переменный
Общий поток : 3586 Кбит/сек
Дата кодирования : UTC 2009-09-14 14:51:59
Программа кодирования : mkvmerge v2.1.0 ('Another Place To Fall') built on Aug 19 2007 13:40:07
Библиотека кодирования : libebml v0.7.7 + libmatroska v0.8.1
Видео
Идентификатор : 1
Формат : AVC
Формат/Информация : Advanced Video Codec
Профиль формата : [email protected]
Параметр CABAC формата : Да
Параметр ReFrames формата : 3 кадра
Идентификатор кодека : V_MPEG4/ISO/AVC
Продолжительность : 49 м.
Вид битрейта : Переменный
Битрейт : 3210 Кбит/сек
Максимальный битрейт : 25,0 Мбит/сек
Ширина : 1280 пикселей
Высота : 720 пикселей
Соотношение сторон : 16:9
Режим частоты кадров : Постоянный
Частота кадров : 25,000 кадров/сек
Цветовое пространство : YUV
Субдискретизация насыщенности : 4:2:0
Битовая глубина : 8 бит
Тип развёртки : Прогрессивная
Бит/(Пиксели*Кадры) : 0.139
Размер потока : 1,09 Гбайт (87%)
Библиотека кодирования : x264 core 66 r1114M a933a3e
Настройки программы : cabac=1 / ref=3 / deblock=1:0:0 / analyse=0x3:0x133 / me=umh / subme=7 / psy_rd=1.0:0.0 / mixed_ref=1 / me_range=16 / chroma_me=1 / trellis=1 / 8x8dct=1 / cqm=0 / deadzone=21,11 / chroma_qp_offset=-2 / threads=3 / nr=0 / decimate=1 / mbaff=0 / bframes=3 / b_pyramid=0 / b_adapt=1 / b_bias=0 / direct=3 / wpredb=1 / keyint=250 / keyint_min=25 / scenecut=40(pre) / rc=2pass / bitrate=3210 / ratetol=1.0 / qcomp=0.60 / qpmin=10 / qpmax=51 / qpstep=4 / cplxblur=20.0 / qblur=0.5 / vbv_maxrate=25000 / vbv_bufsize=25000 / ip_ratio=1.40 / pb_ratio=1.30 / aq=1:1.00
Язык : English
Default : Да
Forced : Нет
Аудио
Идентификатор : 2
Формат : AC-3
Формат/Информация : Audio Coding 3
Расширение режима : CM (complete main)
Параметр Endianness формата : Big
Идентификатор кодека : A_AC3
Продолжительность : 49 м.
Вид битрейта : Постоянный
Битрейт : 384 Кбит/сек
Каналы : 6 каналов
Расположение каналов : Front: L C R, Side: L R, LFE
Частота : 48,0 КГц
Битовая глубина : 16 бит
Метод сжатия : С потерями
Размер потока : 137 Мбайт (11%)
Заголовок : perecelency_by_nyctalus
Язык : Russian
Default : Да
Forced : Нет
Общее
Уникальный идентификатор : 202404141313839592238678899186116486063 (0x98459EA2327368DDB49C457E7ABE63AF)
Полное имя : D:\Отстойник\Тайны Тихого Океана[pirat.ca]\03 Бескрайняя синева[pirat.ca].mkv
Формат : Matroska
Версия формата : Version 1
Размер файла : 1,21 Гбайт
Продолжительность : 47 м.
Режим общего битрейта : Переменный
Общий поток : 3601 Кбит/сек
Дата кодирования : UTC 2009-09-29 13:44:48
Программа кодирования : mkvmerge v2.1.0 ('Another Place To Fall') built on Aug 19 2007 13:40:07
Библиотека кодирования : libebml v0.7.7 + libmatroska v0.8.1
Видео
Идентификатор : 1
Формат : AVC
Формат/Информация : Advanced Video Codec
Профиль формата : [email protected]
Параметр CABAC формата : Да
Параметр ReFrames формата : 3 кадра
Идентификатор кодека : V_MPEG4/ISO/AVC
Продолжительность : 47 м.
Вид битрейта : Переменный
Битрейт : 3210 Кбит/сек
Максимальный битрейт : 25,0 Мбит/сек
Ширина : 1280 пикселей
Высота : 720 пикселей
Соотношение сторон : 16:9
Режим частоты кадров : Постоянный
Частота кадров : 25,000 кадров/сек
Цветовое пространство : YUV
Субдискретизация насыщенности : 4:2:0
Битовая глубина : 8 бит
Тип развёртки : Прогрессивная
Бит/(Пиксели*Кадры) : 0.139
Размер потока : 1,05 Гбайт (87%)
Библиотека кодирования : x264 core 67 r1158M 7b6ce6a
Настройки программы : cabac=1 / ref=3 / deblock=1:0:0 / analyse=0x3:0x133 / me=umh / subme=7 / psy_rd=1.0:0.0 / mixed_ref=1 / me_range=16 / chroma_me=1 / trellis=1 / 8x8dct=1 / cqm=0 / deadzone=21,11 / chroma_qp_offset=-2 / threads=3 / nr=0 / decimate=1 / mbaff=0 / bframes=3 / b_pyramid=0 / b_adapt=1 / b_bias=0 / direct=3 / wpredb=1 / keyint=250 / keyint_min=25 / scenecut=40 / rc=2pass / bitrate=3210 / ratetol=1.0 / qcomp=0.60 / qpmin=10 / qpmax=51 / qpstep=4 / cplxblur=20.0 / qblur=0.5 / vbv_maxrate=25000 / vbv_bufsize=25000 / ip_ratio=1.40 / pb_ratio=1.30 / aq=1:1.00
Язык : English
Default : Да
Forced : Нет
Аудио
Идентификатор : 2
Формат : AC-3
Формат/Информация : Audio Coding 3
Расширение режима : CM (complete main)
Параметр Endianness формата : Big
Идентификатор кодека : A_AC3
Продолжительность : 47 м.
Вид битрейта : Постоянный
Битрейт : 384 Кбит/сек
Каналы : 6 каналов
Расположение каналов : Front: L C R, Side: L R, LFE
Частота : 48,0 КГц
Битовая глубина : 16 бит
Метод сжатия : С потерями
Размер потока : 132 Мбайт (11%)
Заголовок : Beskrajnjaja.sineva_by_nyctalus
Язык : Russian
Default : Да
Forced : Нет
Общее
Уникальный идентификатор : 206772037914448944964889824700132241610 (0x9B8ED8900EAFBDC5836176323E5030CA)
Полное имя : D:\Отстойник\Тайны Тихого Океана[pirat.ca]\04 Океан вулканов[pirat.ca].mkv
Формат : Matroska
Версия формата : Version 1
Размер файла : 1,20 Гбайт
Продолжительность : 48 м.
Режим общего битрейта : Переменный
Общий поток : 3546 Кбит/сек
Дата кодирования : UTC 2009-10-14 10:42:13
Программа кодирования : mkvmerge v2.1.0 ('Another Place To Fall') built on Aug 19 2007 13:40:07
Библиотека кодирования : libebml v0.7.7 + libmatroska v0.8.1
Видео
Идентификатор : 1
Формат : AVC
Формат/Информация : Advanced Video Codec
Профиль формата : [email protected]
Параметр CABAC формата : Да
Параметр ReFrames формата : 3 кадра
Идентификатор кодека : V_MPEG4/ISO/AVC
Продолжительность : 48 м.
Вид битрейта : Переменный
Битрейт : 3210 Кбит/сек
Максимальный битрейт : 25,0 Мбит/сек
Ширина : 1280 пикселей
Высота : 720 пикселей
Соотношение сторон : 16:9
Режим частоты кадров : Постоянный
Частота кадров : 25,000 кадров/сек
Цветовое пространство : YUV
Субдискретизация насыщенности : 4:2:0
Битовая глубина : 8 бит
Тип развёртки : Прогрессивная
Бит/(Пиксели*Кадры) : 0.139
Размер потока : 1,04 Гбайт (87%)
Библиотека кодирования : x264 core 66 r1114M a933a3e
Настройки программы : cabac=1 / ref=3 / deblock=1:0:0 / analyse=0x3:0x133 / me=umh / subme=7 / psy_rd=1.0:0.0 / mixed_ref=1 / me_range=16 / chroma_me=1 / trellis=1 / 8x8dct=1 / cqm=0 / deadzone=21,11 / chroma_qp_offset=-2 / threads=3 / nr=0 / decimate=1 / mbaff=0 / bframes=3 / b_pyramid=0 / b_adapt=1 / b_bias=0 / direct=3 / wpredb=1 / keyint=250 / keyint_min=25 / scenecut=40(pre) / rc=2pass / bitrate=3210 / ratetol=1.0 / qcomp=0.60 / qpmin=10 / qpmax=51 / qpstep=4 / cplxblur=20.0 / qblur=0.5 / vbv_maxrate=25000 / vbv_bufsize=25000 / ip_ratio=1.40 / pb_ratio=1.30 / aq=1:1.00
Язык : English
Default : Да
Forced : Нет
Аудио
Идентификатор : 2
Формат : AC-3
Формат/Информация : Audio Coding 3
Расширение режима : CM (complete main)
Параметр Endianness формата : Big
Идентификатор кодека : A_AC3
Продолжительность : 48 м.
Вид битрейта : Постоянный
Битрейт : 384 Кбит/сек
Каналы : 6 каналов
Расположение каналов : Front: L C R, Side: L R, LFE
Частота : 48,0 КГц
Битовая глубина : 16 бит
Метод сжатия : С потерями
Размер потока : 133 Мбайт (11%)
Заголовок : okean.vulkanov_by_nyctalus
Язык : Russian
Default : Да
Forced : Нет
Общее
Уникальный идентификатор : 216082136613425620712940436417711540262 (0xA28FE7DE415C69F8A6EB244EFE298826)
Полное имя : D:\Отстойник\Тайны Тихого Океана[pirat.ca]\05 Странные острова[pirat.ca].mkv
Формат : Matroska
Версия формата : Version 1
Размер файла : 1,23 Гбайт
Продолжительность : 49 м.
Режим общего битрейта : Переменный
Общий поток : 3533 Кбит/сек
Дата кодирования : UTC 2009-10-21 17:32:35
Программа кодирования : mkvmerge v2.1.0 ('Another Place To Fall') built on Aug 19 2007 13:40:07
Библиотека кодирования : libebml v0.7.7 + libmatroska v0.8.1
Видео
Идентификатор : 1
Формат : AVC
Формат/Информация : Advanced Video Codec
Профиль формата : [email protected]
Параметр CABAC формата : Да
Параметр ReFrames формата : 3 кадра
Идентификатор кодека : V_MPEG4/ISO/AVC
Продолжительность : 49 м.
Вид битрейта : Переменный
Битрейт : 3210 Кбит/сек
Максимальный битрейт : 25,0 Мбит/сек
Ширина : 1280 пикселей
Высота : 720 пикселей
Соотношение сторон : 16:9
Режим частоты кадров : Постоянный
Частота кадров : 25,000 кадров/сек
Цветовое пространство : YUV
Субдискретизация насыщенности : 4:2:0
Битовая глубина : 8 бит
Тип развёртки : Прогрессивная
Бит/(Пиксели*Кадры) : 0.139
Размер потока : 1,07 Гбайт (87%)
Библиотека кодирования : x264 core 66 r1114M a933a3e
Настройки программы : cabac=1 / ref=3 / deblock=1:0:0 / analyse=0x3:0x133 / me=umh / subme=7 / psy_rd=1.0:0.0 / mixed_ref=1 / me_range=16 / chroma_me=1 / trellis=1 / 8x8dct=1 / cqm=0 / deadzone=21,11 / chroma_qp_offset=-2 / threads=3 / nr=0 / decimate=1 / mbaff=0 / bframes=3 / b_pyramid=0 / b_adapt=1 / b_bias=0 / direct=3 / wpredb=1 / keyint=250 / keyint_min=25 / scenecut=40(pre) / rc=2pass / bitrate=3210 / ratetol=1.0 / qcomp=0.60 / qpmin=10 / qpmax=51 / qpstep=4 / cplxblur=20.0 / qblur=0.5 / vbv_maxrate=25000 / vbv_bufsize=25000 / ip_ratio=1.40 / pb_ratio=1.30 / aq=1:1.00
Язык : English
Default : Да
Forced : Нет
Аудио
Идентификатор : 2
Формат : AC-3
Формат/Информация : Audio Coding 3
Расширение режима : CM (complete main)
Параметр Endianness формата : Big
Идентификатор кодека : A_AC3
Продолжительность : 49 м.
Вид битрейта : Постоянный
Битрейт : 384 Кбит/сек
Каналы : 6 каналов
Расположение каналов : Front: L C R, Side: L R, LFE
Частота : 48,0 КГц
Битовая глубина : 16 бит
Метод сжатия : С потерями
Размер потока : 137 Мбайт (11%)
Заголовок : strannye.ostrova_by_nyctalus
Язык : Russian
Default : Да
Forced : Нет
Общее
Уникальный идентификатор : 202585410454064237319645734392458434775 (0x986887E467E3646881EFE31F1978D8D7)
Полное имя : D:\Отстойник\Тайны Тихого Океана[pirat.ca]\06 Хрупкий рай[pirat.ca].mkv
Формат : Matroska
Версия формата : Version 1
Размер файла : 1,23 Гбайт
Продолжительность : 49 м.
Режим общего битрейта : Переменный
Общий поток : 3582 Кбит/сек
Дата кодирования : UTC 2009-10-28 17:58:52
Программа кодирования : mkvmerge v2.1.0 ('Another Place To Fall') built on Aug 19 2007 13:40:07
Библиотека кодирования : libebml v0.7.7 + libmatroska v0.8.1
Видео
Идентификатор : 1
Формат : AVC
Формат/Информация : Advanced Video Codec
Профиль формата : [email protected]
Параметр CABAC формата : Да
Параметр ReFrames формата : 3 кадра
Идентификатор кодека : V_MPEG4/ISO/AVC
Продолжительность : 49 м.
Вид битрейта : Переменный
Битрейт : 3210 Кбит/сек
Максимальный битрейт : 25,0 Мбит/сек
Ширина : 1280 пикселей
Высота : 720 пикселей
Соотношение сторон : 16:9
Режим частоты кадров : Постоянный
Частота кадров : 25,000 кадров/сек
Цветовое пространство : YUV
Субдискретизация насыщенности : 4:2:0
Битовая глубина : 8 бит
Тип развёртки : Прогрессивная
Бит/(Пиксели*Кадры) : 0.139
Размер потока : 1,07 Гбайт (87%)
Библиотека кодирования : x264 core 66 r1114M a933a3e
Настройки программы : cabac=1 / ref=3 / deblock=1:0:0 / analyse=0x3:0x133 / me=umh / subme=7 / psy_rd=1.0:0.0 / mixed_ref=1 / me_range=16 / chroma_me=1 / trellis=1 / 8x8dct=1 / cqm=0 / deadzone=21,11 / chroma_qp_offset=-2 / threads=3 / nr=0 / decimate=1 / mbaff=0 / bframes=3 / b_pyramid=0 / b_adapt=1 / b_bias=0 / direct=3 / wpredb=1 / keyint=250 / keyint_min=25 / scenecut=40(pre) / rc=2pass / bitrate=3210 / ratetol=1.0 / qcomp=0.60 / qpmin=10 / qpmax=51 / qpstep=4 / cplxblur=20.0 / qblur=0.5 / vbv_maxrate=25000 / vbv_bufsize=25000 / ip_ratio=1.40 / pb_ratio=1.30 / aq=1:1.00
Язык : English
Default : Да
Forced : Нет
Аудио
Идентификатор : 2
Формат : AC-3
Формат/Информация : Audio Coding 3
Расширение режима : CM (complete main)
Параметр Endianness формата : Big
Идентификатор кодека : A_AC3
Продолжительность : 49 м.
Вид битрейта : Постоянный
Битрейт : 384 Кбит/сек
Каналы : 6 каналов
Расположение каналов : Front: L C R, Side: L R, LFE
Частота : 48,0 КГц
Битовая глубина : 16 бит
Метод сжатия : С потерями
Размер потока : 135 Мбайт (11%)
Заголовок : hrupkij.raj_by_nyctalus
Язык : Russian
Default : Да
Forced : Нет
Общее
Уникальный идентификатор : 220616071649353991161580451982722355378 (0xA5F91C1FCD4346E6AA8431D0BB9A50B2)
Полное имя : D:\Отстойник\Тайны Тихого Океана[pirat.ca]\bonus_Океаны (Nat Geo) HD[pirat.ca].mkv
Формат : Matroska
Версия формата : Version 1
Размер файла : 4,35 Гбайт
Продолжительность : 1 ч. 43 м.
Общий поток : 6002 Кбит/сек
Название фильма : Oceans 2009 [ve]
Дата кодирования : UTC 2010-10-27 22:08:11
Программа кодирования : mkvmerge v2.4.2 ('Oh My God') built on Jan 18 2009 17:30:28
Библиотека кодирования : libebml v0.7.7 + libmatroska v0.8.1
Видео
Идентификатор : 1
Формат : AVC
Формат/Информация : Advanced Video Codec
Профиль формата : [email protected]
Параметр CABAC формата : Да
Параметр ReFrames формата : 8 кадров
Идентификатор кодека : V_MPEG4/ISO/AVC
Продолжительность : 1 ч. 43 м.
Битрейт : 5348 Кбит/сек
Ширина : 1280 пикселей
Высота : 528 пикселей
Соотношение сторон : 2,40:1
Режим частоты кадров : Постоянный
Частота кадров : 23,976 кадра/сек
Цветовое пространство : YUV
Субдискретизация насыщенности : 4:2:0
Битовая глубина : 8 бит
Тип развёртки : Прогрессивная
Бит/(Пиксели*Кадры) : 0.330
Размер потока : 3,80 Гбайт (87%)
Заголовок : Oceans 2009 [ve]
Библиотека кодирования : x264 core 98 r1649 c54c47d
Настройки программы : cabac=1 / ref=8 / deblock=1:-3:-3 / analyse=0x3:0x113 / me=umh / subme=10 / psy=1 / psy_rd=1.00:0.00 / mixed_ref=1 / me_range=64 / chroma_me=1 / trellis=2 / 8x8dct=1 / cqm=0 / deadzone=21,11 / fast_pskip=0 / chroma_qp_offset=-2 / threads=3 / sliced_threads=0 / nr=0 / decimate=1 / interlaced=0 / constrained_intra=0 / bframes=16 / b_pyramid=2 / b_adapt=2 / b_bias=0 / direct=1 / weightb=1 / weightp=2 / keyint=250 / keyint_min=25 / scenecut=40 / intra_refresh=0 / rc_lookahead=40 / rc=2pass / mbtree=1 / bitrate=5348 / ratetol=1.0 / qcomp=0.60 / qpmin=10 / qpmax=51 / qpstep=4 / cplxblur=20.0 / qblur=0.5 / ip_ratio=1.40 / aq=1:1.00
Язык : French
Default : Да
Forced : Нет
Аудио
Идентификатор : 2
Формат : AC-3
Формат/Информация : Audio Coding 3
Расширение режима : CM (complete main)
Параметр Endianness формата : Big
Идентификатор кодека : A_AC3
Продолжительность : 1 ч. 43 м.
Вид битрейта : Постоянный
Битрейт : 640 Кбит/сек
Каналы : 6 каналов
Расположение каналов : Front: L C R, Side: L R, LFE
Частота : 48,0 КГц
Битовая глубина : 16 бит
Метод сжатия : С потерями
Размер потока : 475 Мбайт (11%)
Язык : Russian
Default : Да
Forced : Нет
Текст
Идентификатор : 3
Формат : UTF-8
Идентификатор кодека : S_TEXT/UTF8
Идентификатор кодека/Информация : UTF-8 Plain Text
Язык : Russian
Default : Да
Forced : Нет

Скриншот c названием фильма

Скриншоты

Яндекс.Метрика
Рейтинг@Mail.ru