Убей своих любимых / Kill Your Darlings (2013) HDRip

 

Создавать темы 24-Апр-2014 03:01

-Убей своих любимых / Kill Your Darlings (2013) HDRip- Год выпуска: 2013
Производство: США, Benaroya Pictures, Killer Films, Outpost Studios
Жанр: Драма, Мелодрама
Перевод: Двуголосый закадровый, любительский (Jetvis Studio)
Субтитры: Отсутствуют
Дата мировой премьеры: 18 января 2013
Режиссер: Джон Крокидас
Продюсер: Майкл Бенаройя, Роуз Гангузза, Джон Крокидас
Актеры: Дэниэл Рэдклифф, Дэйн ДеХаан, Бен Фостер, Майкл С. Холл, Джек Хьюстон, Дженнифер Джейсон Ли, Элизабет Олсен, Дэвид Кросс, Джон Каллам, Бренда Веле
Описание фильма:
«Убей своих любимых» – биографическая драма 2013 года, ставшая режиссёрским дебютом Джона Крокидаса. В фильме рассказывается о том, как произошедшее в 1944 году в Колумбийском университете убийство одного из студентов свело вместе молодых писателей Аллена Гинзберга (Дэниэл Рэдклифф), Джека Керуака (Джек Хьюстон) и Уильяма Берроуза (Бен Фостер), которым впоследствии суждено было стать движущей силой бит-поколения. Они хорошо знали как погибшего Карра, так и убившего его Камеррера, а некоторое время спустя Берроуз и Керуак описали произошедшее в своём романе «И бегемоты сварились в своих бассейнах».

Рейтинг MPAA: PG-17
Возраст: 18+
Продолжительность: 01:42:44
Качество видео: HDRip
Видеокодек: XviD
Битрейт видео: 1448 kb/s
Размер кадра: 720x304
Аудио #1: 48 kHz, AC3 Dolby Digital, 2/0 (L,R) ch, ~192 kbps (Русский) / Двухголоска, Jetvis Studio
Аудио #2: 48 kHz, AC3 Dolby Digital, 2/0 (L,R) ch, ~256 kbps (Английский) / Оригинал

Награды

Санденс, 2013 год
Номинации (1):
  • Гран-при в категории «Драматический фильм»

MI

Общее
Полное имя                               : D:\Раздачи\Ubej.svoih.ljubimyh.2013.HDRip.NNM-CLUB.avi
Формат                                   : AVI
Формат/Информация                        : Audio Video Interleave
Размер файла                             : 1,37 Гбайт
Продолжительность                        : 1 ч. 42 м.
Общий поток                              : 1910 Кбит/сек
Программа кодирования                    : VirtualDubMod 1.5.10.3 | (build 2550/release)
Библиотека кодирования                   : VirtualDubMod build 2550/release
Видео
Идентификатор                            : 0
Формат                                   : MPEG-4 Visual
Профиль формата                          : Advanced [email protected]
Параметр BVOP формата                    : 2
Параметр QPel формата                    : Нет
Параметр GMC формата                     : Без точки перехода
Параметр матрицы формата                 : Default (MPEG)
Идентификатор кодека                     : XVID
Идентификатор кодека/Подсказка           : XviD
Продолжительность                        : 1 ч. 42 м.
Битрейт                                  : 1448 Кбит/сек
Ширина                                   : 720 пикселей
Высота                                   : 304 пикселя
Соотношение сторон                       : 2,35:1
Частота кадров                           : 23,976 кадра/сек
Цветовое пространство                    : YUV
Субдискретизация насыщенности            : 4:2:0
Битовая глубина                          : 8 бит
Тип развёртки                            : Прогрессивная
Метод сжатия                             : С потерями
Бит/(Пиксели*Кадры)                      : 0.276
Размер потока                            : 1,04 Гбайт (76%)
Библиотека кодирования                   : XviD 1.2.1 (UTC 2008-12-04)
Аудио #1
Идентификатор                            : 1
Формат                                   : AC-3
Формат/Информация                        : Audio Coding 3
Расширение режима                        : CM (complete main)
Параметр Endianness формата              : Big
Идентификатор кодека                     : 2000
Продолжительность                        : 1 ч. 42 м.
Вид битрейта                             : Постоянный
Битрейт                                  : 192 Кбит/сек
Каналы                                   : 2 канала
Расположение каналов                     : Front: L R
Частота                                  : 48,0 КГц
Битовая глубина                          : 16 бит
Метод сжатия                             : С потерями
Размер потока                            : 141 Мбайт (10%)
Выравнивание                             : Разделение по промежуткам
Продолжительность промежутка             : 42  мс. (1,00 видеокадр)
Время предзагрузки промежутка            : 500  мс.
Аудио #2
Идентификатор                            : 2
Формат                                   : AC-3
Формат/Информация                        : Audio Coding 3
Расширение режима                        : CM (complete main)
Параметр Endianness формата              : Big
Идентификатор кодека                     : 2000
Продолжительность                        : 1 ч. 42 м.
Вид битрейта                             : Постоянный
Битрейт                                  : 256 Кбит/сек
Каналы                                   : 2 канала
Расположение каналов                     : Front: L R
Частота                                  : 48,0 КГц
Битовая глубина                          : 16 бит
Метод сжатия                             : С потерями
Размер потока                            : 188 Мбайт (13%)
Выравнивание                             : Разделение по промежуткам
Продолжительность промежутка             : 42  мс. (1,00 видеокадр)
Время предзагрузки промежутка            : 500  мс.
Скриншоты:Время раздачи: 24/7,
до 5 скачавших.
Яндекс.Метрика
Рейтинг@Mail.ru