Два бойца (Леонид Луков) [1943 г., Военный фильм, драма, экранизация, DVDRip-AVC]

 

Создавать темы 08-Май-2014 14:39

-Два бойца-- Производство: СССР, Ташкентская киностудия
Режиссер: Леонид Луков
Жанр: Военный фильм, драма, экранизация
Год выпуска: 1943 г.
Продолжительность: 01:14:56
Российская премьера: 6 октября 1943, ...
В ролях: Марк Бернес, Борис Андреев, Вера Шершнева, Янина Жеймо, Максим Штраух, Иван Кузнецов, Степан Крылов, Лаврентий Масоха, Сергей Комаров (I), Афанасий Белов, Эммануил Геллер, Алексей Попов, Андрей Сова, Ольга Третьякова, Григорий Михайлов, Иван Переверзев-Описание: Фильм снят во время войны по повести Льва Славина «Мои земляки». Искренний и правдивый рассказ о дружбе Аркадия Дзюбина, неунывающего, лихого и бедового парня из Одессы, и Саши Свинцова — «Саши с Уралмаша».-
Качество видео: DVDRip-AVC
Контейнер: MKV
Видео кодек: H.264
Аудио кодек: AC3
Видео: MPEG-4 AVC (H 264), 1989 Кбит/с, 688x530, 25.000 fps, 0.282 bpp
Аудио: 48 kHz, AC3, 2 ch, 192 Кбит/с
Cубтитры: отсутствуют

Media Info

General
Complete name : W:\Два бойца_1943-DVDRip-AVC.mkv
Format : Matroska
File size : 1.41 GiB
Duration : 1h 14mn
Overall bit rate : 2 694 Kbps
Encoded date : UTC 2014-05-07 10:27:56
Writing application : mkvmerge v5.2.0 ('I can't explain') built on Dec 18 2011 18:12:03
Writing library : libebml v1.2.3 + libmatroska v1.3.0
Video
ID : 1
Format : AVC
Format/Info : Advanced Video Codec
Format profile : [email protected]
Format settings, CABAC : Yes
Format settings, ReFrames : 16 frames
Muxing mode : Container [email protected]
Codec ID : V_MPEG4/ISO/AVC
Duration : 1h 14mn
Bit rate : 2 500 Kbps
Width : 668 pixels
Height : 530 pixels
Display aspect ratio : 4:3
Original display aspect ratio : 4:3
Frame rate : 25.000 fps
Color space : YUV
Chroma subsampling : 4:2:0
Bit depth : 8 bits
Scan type : Progressive
Bits/(Pixel*Frame) : 0.282
Stream size : 1.28 GiB (91%)
Writing library : x264 core 130 r2273 b3065e6
Encoding settings : cabac=1 / ref=16 / deblock=1:-2:-2 / analyse=0x3:0x133 / me=umh / subme=10 / psy=1 / psy_rd=1.05:0.10 / mixed_ref=1 / me_range=24 / chroma_me=1 / trellis=2 / 8x8dct=1 / cqm=0 / deadzone=21,11 / fast_pskip=0 / chroma_qp_offset=-3 / threads=12 / lookahead_threads=3 / sliced_threads=0 / nr=0 / decimate=0 / interlaced=0 / bluray_compat=0 / constrained_intra=0 / bframes=16 / b_pyramid=2 / b_adapt=2 / b_bias=0 / direct=3 / weightb=1 / open_gop=0 / weightp=2 / keyint=250 / keyint_min=25 / scenecut=40 / intra_refresh=0 / rc=2pass / mbtree=0 / bitrate=2500 / ratetol=1.0 / qcomp=0.65 / qpmin=0 / qpmax=55 / qpstep=4 / cplxblur=20.0 / qblur=0.5 / ip_ratio=1.30 / pb_ratio=1.20 / aq=1:1.00
Color primaries : BT.470-6 System B, BT.470-6 System G, BT.601-6 625, BT.1358 625, BT.1700 625 PAL, BT.1700 625 SECAM
Transfer characteristics : BT.470-6 System B, BT.470-6 System G
Matrix coefficients : BT.470-6 System B, BT.470-6 System G, BT.601-6 625, BT.1358 625, BT.1700 625 PAL, BT.1700 625 SECAM, IEC 61966-2-4 601
Audio
ID : 2
Format : AC-3
Format/Info : Audio Coding 3
Mode extension : CM (complete main)
Codec ID : A_AC3
Duration : 1h 14mn
Bit rate mode : Constant
Bit rate : 192 Kbps
Channel(s) : 2 channels
Channel positions : Front: L R
Sampling rate : 48.0 KHz
Bit depth : 16 bits
Stream size : 103 MiB (7%)
Language : Russian

Скриншоты

- -
Яндекс.Метрика
Рейтинг@Mail.ru