Артем Каменистый - Девятый. Рождение победителя - 3 [2014 г., Геннадий Коршунов, MP3, 13:48:53]

 

Создавать темы 10-Май-2014 21:51

-Девятый. Рождение победителя - 3-- Год выпуска: 2014 г.
Автор: Артем Каменистый
Исполнитель: Геннадий Коршунов
Жанр: фантастика
Издательство: СамИздат
Тип аудиокниги: аудиокнига
Цикл/Серия: Девятый-Аудио кодек: MP3
Битрейт аудио: 192 kbps
Время звучания: 13:48:53-Описание
Продолжение отчета добровольца номер Девять. Да, это снова сэр Дан, самозваный страж ордена Полуденных. Он же - девятая попытка переноса сознания умирающего в параллельный мир. Полгода в новом теле и новом мире - можно подводить кое-какие итоги. Из плюсов: все еще жив, уверенно обживаю замок Мальрок, что в Межгорье. Только не спрашивайте, где находится само Межгорье - спросите что-нибудь полегче. Если удастся выживать еще два с половиной года - Межгорье официально станет моим, а я его графом соответственно. Минусов гораздо больше - катастрофически не хватает рабочих рук, местечко, сами понимаете, после всех обрушившихся на него бед популярностью не пользуется. С приростом личной армии тоже непросто. Постоянно жду "в гости" наемных убийц с приветом от "друга-инквизитора". Но все это мелочи в сравнении с главным минусом. Очень серьезно болен. Что сломалось внутри после того боя на холме. Скоро сил до сортира дойти самостоятельно не останется. Так что если все же решитесь на подрыв Вселенной и доставки ранее заказанного, прибавьте к посылке лекарство от всех болезней или хотя бы потомственную белую ведьму-травницу с отрядом камлающих шаманов. Вдруг поможет...
Ваш Девятый.-

Media Info

Общее
Полное имя : D:\Torrent\book_audio\Dev-3\000. А. Каменистый - Рождение Победителя. Пролог.mp3
Формат : MPEG Audio
Размер файла : 10,0 Мбайт
Продолжительность : 7 м. 18 с.
Режим общего битрейта : Постоянный
Общий поток : 192 Кбит/сек
Аудио
Формат : MPEG Audio
Версия формата : Version 1
Профиль формата : Layer 3
Режим : Joint stereo
Продолжительность : 7 м. 18 с.
Вид битрейта : Постоянный
Битрейт : 192 Кбит/сек
Каналы : 2 канала
Частота : 44,1 КГц
Метод сжатия : С потерями
Размер потока : 10,0 Мбайт (100%)
Общее
Полное имя : D:\Torrent\book_audio\Dev-3\001. А. Каменистый - Рождение Победителя. Глава 01-01.mp3
Формат : MPEG Audio
Размер файла : 18,2 Мбайт
Продолжительность : 13 м.
Режим общего битрейта : Постоянный
Общий поток : 192 Кбит/сек
Аудио
Формат : MPEG Audio
Версия формата : Version 1
Профиль формата : Layer 3
Режим : Joint stereo
Продолжительность : 13 м.
Вид битрейта : Постоянный
Битрейт : 192 Кбит/сек
Каналы : 2 канала
Частота : 44,1 КГц
Метод сжатия : С потерями
Размер потока : 18,2 Мбайт (100%)
Яндекс.Метрика
Рейтинг@Mail.ru