[ Сегодня на трекере фрилич! Идет свободное скачивание без начисления Download ]

Не безопасно для работы / Not Safe for Work (Джо Джонстон / Joe Johnston) [2014 г., Триллер, DVDRip] VO [datynet]

 

Создавать темы 15-Май-2014 03:52

-Не безопасно для работы / Not Safe for Work-- Производство: США, Blumhouse Productions
Год выпуска: 2014 г.
Жанр: Триллер
Продолжительность: 01:11:10
Мировая премьера: 25 июня 2014
Дата выхода DVD: 29 мая 2014, «Двадцатый Век Фокс СНГ», ...
Дата выхода Blu-Ray: 29 мая 2014, «Двадцатый Век Фокс СНГ», ...
Перевод: Любительский (одноголосый, закадровый) [datynet]
Режиссер: Джо Джонстон / Joe Johnston-В ролях: Джей Джей Филд, Элоиза Мамфорд, Макс Мингелла, Майкл Глэдис, Молли Хэйгэн, Кристиан Клименсон, Брэндон Кинер, Тим Гриффин, Марина Блэк, Эме Иквуакор-Описание: Офисный работник оказывается запертым в офисном здании, по которому
разгуливает убийца.-
Качество видео: DVDRip
Контейнер: AVI
Видео кодек: XviD
Аудио кодек: MP3
Видео: XviD, 2 391 Кбит/с, 720x384, 25 fps, 0.346 bpp
Аудио: 44.1 kHz, MP3, 2 ch, 192 Кбит/с VO
Cубтитры: отсутствуют

Media Info

General
Complete name : W:\Not.Safe.for.Work.2014.avi
Format : AVI
Format/Info : Audio Video Interleave
File size : 1.29 GiB
Duration : 1h 11mn
Overall bit rate : 2 592 Kbps
Writing application : VirtualDubMod 1.5.10.3 | www.virtualdub-fr.org || (build 2550/release)
Writing library : VirtualDub build 34753/release
Video
ID : 0
Format : MPEG-4 Visual
Format profile : Advanced [email protected]
Format settings, BVOP : Yes
Format settings, QPel : No
Format settings, GMC : No warppoints
Format settings, Matrix : Default (MPEG)
Codec ID : XVID
Codec ID/Hint : XviD
Duration : 1h 11mn
Bit rate : 2 391 Kbps
Width : 720 pixels
Height : 384 pixels
Display aspect ratio : 1.875
Frame rate : 25.000 fps
Color space : YUV
Chroma subsampling : 4:2:0
Bit depth : 8 bits
Scan type : Progressive
Bits/(Pixel*Frame) : 0.346
Stream size : 1.19 GiB (92%)
Writing library : XviD 1.2.1 (UTC 2008-12-04)
Audio
ID : 1
Format : MPEG Audio
Format version : Version 1
Format profile : Layer 3
Codec ID : 55
Codec ID/Hint : MP3
Duration : 1h 11mn
Bit rate mode : Constant
Bit rate : 192 Kbps
Channel(s) : 2 channels
Sampling rate : 44.1 KHz
Stream size : 97.7 MiB (7%)
Alignment : Split accross interleaves
Interleave, duration : 40 ms (1.00 video frame)
Interleave, preload duration : 500 ms

Скриншоты

Яндекс.Метрика
Рейтинг@Mail.ru