Некоторые любят погорячее / В джазе только девушки / Some like it hot (Билли Уайлдер / Billy Wilder) [1959 г., Комедия, BDRip-AVC, 576p] AVO (Михалев (ранний), Михалев (поздний)) + Dub (Сов.)

 

Создавать темы 22-Май-2014 03:24

Некоторые любят погорячее / В джазе только девушки / Some like it hot«Marilyn Monroe and her bosom companions» Год выпуска: 1959
Мировая премьера: 29 March 1959 (USA)
Дата выхода DVD: 14 мая 2009, «Двадцатый Век Фокс СНГ»
Производство: США
Жанр: Комедия
Продолжительность: 02:01:32
Перевод: Авторский (одноголосый): 1-я дорожка - Алексей Михалев (ранний); 2-я дорожка - Алексей Михалев (поздний) + Дубляж (к/с им. Горького) со вставками дубляжа канала ОРТ в отдельные фрагменты, вырезанные советским кинопрокатом.
Оригинальный аудиопоток: Отсутствует
Режиссер: Билли Уайлдер / Billy Wilder
В ролях: Тони Кертис / Tony Curtis, Мэрилин Монро / Marilyn Monroe, Джек Леммон / Jack Lemmon, Джо И. Браун / Joe E. Brown, Джордж Рэфт / George Raft, Джоэн Шоули / Joan Shawlee, Неимайя Персофф / Nehemiah Persoff, Пэт О'Брайен / Pat O'Brien, Джордж И. Стоун / George E. Stone, Билли Грэй / Billy Gray
Описание: Гениальная комедия о двух музыкантах (Кертис и Леммон), спасающихся бегством от чикагской мафии после того, как они стали свидетелями гангстерских "разборок". Для того, чтобы спастись, им приходится, переодевшись в дамское платье, поступить в женский джаз-банд. Монро великолепна в роли сногсшибательной красотки. Фильм с гигантским успехом шел в советском прокате под названием "В джазе только девушки". "Оскар" за лучшие костюмы. Номинации за режиссуру, лучшую мужскую роль (Леммон), адаптированный сценарий, операторскую работу (ч/б), работу художников. (Иванов М.)
Качество: BDRip-AVC
Контейнер: MKV
Разрешение: 576р
Видео: 954 x 576 (1,656:1), x264, [email protected], 23.976 fps, ~ 3 500 Kbps
Аудио#1: 48 kHz, AC3 Dolby Digital, 2/0 (L,R) ch, ~192.00 kbps avg - Михалёв ранний;
Аудио#2: 48 kHz, AC3 Dolby Digital, 2/0 (L,R) ch, ~192.00 kbps avg - Михалёв поздний;
Аудио#3: 48 kHz, AC3 Dolby Digital, 2/0 (L,R) ch, ~192.00 kbps avg - Сов. дубляж;

Media Info

Формат : Matroska
Версия формата : Version 4 / Version 2
Размер файла : 3,46 Гбайт
Продолжительность : 2 ч. 1 м.
Общий поток : 4076 Кбит/сек
Дата кодирования : UTC 2014-05-21 12:20:05
Программа кодирования : mkvmerge v6.9.1 ('Blue Panther') 32bit built on Apr 18 2014 18:15:44
Библиотека кодирования : libebml v1.3.0 + libmatroska v1.4.1
Видео
Идентификатор : 1
Формат : AVC
Формат/Информация : Advanced Video Codec
Профиль формата : [email protected]
Параметр CABAC формата : Да
Параметр ReFrames формата : 8 кадров
Идентификатор кодека : V_MPEG4/ISO/AVC
Продолжительность : 2 ч. 1 м.
Битрейт : 3500 Кбит/сек
Ширина : 954 пикселя
Высота : 576 пикселей
Соотношение сторон : 1,656
Режим частоты кадров : Постоянный
Частота кадров : 23,976 кадра/сек
Цветовое пространство : YUV
Субдискретизация насыщенности : 4:2:0
Битовая глубина : 8 бит
Тип развёртки : Прогрессивная
Бит/(Пиксели*Кадры) : 0.266
Размер потока : 2,90 Гбайт (84%)
Библиотека кодирования : x264 core 114 r1924 08d04a4
Настройки программы : cabac=1 / ref=8 / deblock=1:-2:-2 / analyse=0x3:0x133 / me=umh / subme=9 / psy=1 / psy_rd=1.00:0.20 / mixed_ref=1 / me_range=48 / chroma_me=1 / trellis=2 / 8x8dct=1 / cqm=0 / deadzone=21,11 / fast_pskip=0 / chroma_qp_offset=2 / threads=3 / sliced_threads=0 / nr=0 / decimate=1 / interlaced=0 / constrained_intra=0 / bframes=5 / b_pyramid=2 / b_adapt=2 / b_bias=0 / direct=3 / weightb=1 / open_gop=0 / weightp=2 / keyint=240 / keyint_min=23 / scenecut=40 / intra_refresh=0 / rc=2pass / mbtree=0 / bitrate=3500 / ratetol=1.0 / qcomp=0.60 / qpmin=10 / qpmax=51 / qpstep=4 / cplxblur=20.0 / qblur=0.5 / ip_ratio=1.40 / pb_ratio=1.30 / aq=1:1.10
Язык : English
Default : Нет
Forced : Нет
Аудио #1
Идентификатор : 2
Формат : AC-3
Формат/Информация : Audio Coding 3
Расширение режима : CM (complete main)
Параметр Endianness формата : Big
Идентификатор кодека : A_AC3
Продолжительность : 2 ч. 1 м.
Вид битрейта : Постоянный
Битрейт : 192 Кбит/сек
Каналы : 2 канала
Расположение каналов : Front: L R
Частота : 48,0 КГц
Битовая глубина : 16 бит
Метод сжатия : С потерями
Размер потока : 167 Мбайт (5%)
Заголовок : Mihalev Early
Язык : Russian
Default : Да
Forced : Нет
Аудио #2
Идентификатор : 3
Формат : AC-3
Формат/Информация : Audio Coding 3
Расширение режима : CM (complete main)
Параметр Endianness формата : Big
Идентификатор кодека : A_AC3
Продолжительность : 2 ч. 1 м.
Вид битрейта : Постоянный
Битрейт : 192 Кбит/сек
Каналы : 2 канала
Расположение каналов : Front: L R
Частота : 48,0 КГц
Битовая глубина : 16 бит
Метод сжатия : С потерями
Размер потока : 167 Мбайт (5%)
Заголовок : Mihalev Later
Язык : Russian
Default : Нет
Forced : Нет
Аудио #3
Идентификатор : 4
Формат : AC-3
Формат/Информация : Audio Coding 3
Расширение режима : CM (complete main)
Параметр Endianness формата : Big
Идентификатор кодека : A_AC3
Продолжительность : 2 ч. 1 м.
Вид битрейта : Постоянный
Битрейт : 192 Кбит/сек
Каналы : 2 канала
Расположение каналов : Front: L R
Частота : 48,0 КГц
Битовая глубина : 16 бит
Метод сжатия : С потерями
Задержка видео : 1 с. 500 мс.
Размер потока : 167 Мбайт (5%)
Заголовок : Dub SU + MVO ORT
Язык : Russian
Default : Нет
Forced : Нет
Меню
00:00:00.000 : :Chapter 01
00:05:02.176 : :Chapter 02
00:11:56.173 : :Chapter 03
00:18:09.421 : :Chapter 04
00:23:59.896 : :Chapter 05
00:28:59.195 : :Chapter 06
00:34:49.795 : :Chapter 07
00:48:28.362 : :Chapter 08
00:57:17.642 : :Chapter 09
01:09:11.146 : :Chapter 10
01:17:25.349 : :Chapter 11
01:28:21.212 : :Chapter 12
01:34:24.116 : :Chapter 13
01:39:15.240 : :Chapter 14
01:48:53.109 : :Chapter 15
01:54:35.410 : :Chapter 16
02:01:31.075 : :Chapter 17

Скриншоты

Яндекс.Метрика
Рейтинг@Mail.ru