[ Сегодня на трекере фрилич! Идет свободное скачивание без начисления Download ]

Больше чем мед / More Than Honey (2012) BDRip 1080p от HDClub | P2

 

Создавать темы 19-Окт-2013 04:29

Информация о фильме
Название: Больше чем мед
Оригинальное название: More Than Honey
Год выхода: 2012
Жанр: Документальный, познавательный, природа
Режиссер: Маркус Имхоф
В ролях: Fred Jaggi, Randolf Menzel, Джон Миллер, Liane Singer, Хейдран Сингер, Zhao Su Zhang, Фред Терри, Boris Baer, Joseph MacIlvaine, André Maritz
О фильме:
Документальный фильм о жизни пчел, об их загадочной массовой гибели в последние годы по всему миру, об опасностях, которые несет им сегодняшняя цивилизация, и о том неоценимом вкладе, который они вносят в обеспечение человечества продовольствием, участвуя в опылении сельхозкультур. Автор фильма берет интервью у ученых и описывает уникальное устройство пчелиной жизни, заглянув в самые укромные уголки улья и в неповторимый образ жизни пчел.

Страна: Швейцария, Германия, Австрия
Продолжительность: 01:31:28
Перевод: Профессиональный (двухголосый закадровый)
Файл
Кодек: MPEG-4 AVC
Качество: BDRip 1080p
Видео: 15.6 Мбит/с, 1920x1080, 25 кадр/с
Звук:
Аудио 1: Russian: 48 kHz/16-bit, AC3, 3/2 (L,C,R,l,r) + LFE ch, ~448 kbps |Двухголосый, закадровый|
Аудио 2: German: 48 kHz/24-bit, DTS, 3/2 (L,C,R,l,r) + LFE ch, ~1509 kbps |Kinofassung / театральная версия|
Аудио 3: German: 48 kHz/24-bit, DTS, 3/2 (L,C,R,l,r) + LFE ch, ~1509 kbps |Synchronisierte Fassung / синхронизированная версия|
Субтитры: 3xGerman, English, Persian, Hungarian, Bulgarian, Turkish
Сохранены оригинальные чаптеры как на Blu-ray
Перевод: Агата Клинцова
Текс читают: Франк Цветков и Ульяна Громова

MI

x264 [info]: frame I:902 Avg QP:15.49 size:241162
x264 [info]: frame P:42361 Avg QP:16.73 size:124523
x264 [info]: frame B:93944 Avg QP:19.14 size: 58413
x264 [info]: consecutive B-frames: 2.0% 5.4% 44.4% 48.2%
General
Unique ID : 172215089033760828053742562302147893037 (0x818F6B70723C7B0DA9CBEF8E9853172D)
Complete name : More.Than.Honey.2012.1080p.BluRay.Rus.2xGer.HDCLUB.mkv
Format : Matroska
Format version : Version 4 / Version 2
File size : 12.4 GiB
Duration : 1h 31mn
Overall bit rate : 19.5 Mbps
Encoded date : UTC 2013-10-12 13:53:23
Writing application : mkvmerge v6.3.0 ('You can't stop me!') built on Jun 28 2013 20:09:41
Writing library : libebml v1.3.0 + libmatroska v1.4.0
Video
ID : 1
Format : AVC
Format/Info : Advanced Video Codec
Format profile : [email protected]
Format settings, CABAC : Yes
Format settings, ReFrames : 4 frames
Codec ID : V_MPEG4/ISO/AVC
Duration : 1h 31mn
Bit rate : 15.6 Mbps
Width : 1 920 pixels
Height : 1 080 pixels
Display aspect ratio : 16:9
Frame rate mode : Constant
Frame rate : 25.000 fps
Color space : YUV
Chroma subsampling : 4:2:0
Bit depth : 8 bits
Scan type : Progressive
Bits/(Pixel*Frame) : 0.301
Stream size : 9.98 GiB (80%)
Title : Больше чем мёд / More Than Honey (2012) - realise for HDCLUB
Writing library : x264 core 133 r2334 a3ac64b
Encoding settings : cabac=1 / ref=4 / deblock=1:-3:-3 / analyse=0x3:0x113 / me=umh / subme=10 / psy=1 / psy_rd=1.00:0.00 / mixed_ref=1 / me_range=48 / chroma_me=1 / trellis=2 / 8x8dct=1 / cqm=0 / deadzone=21,11 / fast_pskip=1 / chroma_qp_offset=-2 / threads=6 / lookahead_threads=1 / sliced_threads=0 / nr=0 / decimate=1 / interlaced=0 / bluray_compat=0 / constrained_intra=0 / bframes=3 / b_pyramid=2 / b_adapt=2 / b_bias=0 / direct=1 / weightb=1 / open_gop=0 / weightp=2 / keyint=250 / keyint_min=25 / scenecut=40 / intra_refresh=0 / rc_lookahead=65 / rc=crf / mbtree=0 / crf=17.0 / qcomp=0.60 / qpmin=0 / qpmax=69 / qpstep=4 / vbv_maxrate=50000 / vbv_bufsize=62500 / crf_max=0.0 / nal_hrd=none / ip_ratio=1.40 / pb_ratio=1.30 / aq=1:0.80
Language : English
Default : Yes
Forced : No
Matrix coefficients : BT.709
Audio #1
ID : 2
Format : AC-3
Format/Info : Audio Coding 3
Mode extension : CM (complete main)
Format settings, Endianness : Big
Codec ID : A_AC3
Duration : 1h 31mn
Bit rate mode : Constant
Bit rate : 448 Kbps
Channel(s) : 6 channels
Channel positions : Front: L C R, Side: L R, LFE
Sampling rate : 48.0 KHz
Bit depth : 16 bits
Compression mode : Lossy
Stream size : 293 MiB (2%)
Title : Двухголосый, закадровый (Франк Цветков и Ульяна Громова)
Language : Russian
Default : Yes
Forced : No
Audio #2
ID : 3
Format : DTS
Format/Info : Digital Theater Systems
Mode : 16
Format settings, Endianness : Big
Codec ID : A_DTS
Duration : 1h 31mn
Bit rate mode : Constant
Bit rate : 1 509 Kbps
Channel(s) : 6 channels
Channel positions : Front: L C R, Side: L R, LFE
Sampling rate : 48.0 KHz
Bit depth : 24 bits
Compression mode : Lossy
Stream size : 987 MiB (8%)
Title : Kinofassung / театральной версии
Language : German
Default : No
Forced : No
Audio #3
ID : 4
Format : DTS
Format/Info : Digital Theater Systems
Mode : 16
Format settings, Endianness : Big
Codec ID : A_DTS
Duration : 1h 31mn
Bit rate mode : Constant
Bit rate : 1 509 Kbps
Channel(s) : 6 channels
Channel positions : Front: L C R, Side: L R, LFE
Sampling rate : 48.0 KHz
Bit depth : 24 bits
Compression mode : Lossy
Stream size : 987 MiB (8%)
Title : Synchronisierte Fassung / синхронизированная версия
Language : German
Default : No
Forced : No
Text #1
ID : 5
Format : UTF-8
Codec ID : S_TEXT/UTF8
Codec ID/Info : UTF-8 Plain Text
Language : German
Default : No
Forced : No
Text #2
ID : 6
Format : UTF-8
Codec ID : S_TEXT/UTF8
Codec ID/Info : UTF-8 Plain Text
Language : German
Default : No
Forced : No
Text #3
ID : 7
Format : UTF-8
Codec ID : S_TEXT/UTF8
Codec ID/Info : UTF-8 Plain Text
Language : German
Default : No
Forced : No
Text #4
ID : 8
Format : UTF-8
Codec ID : S_TEXT/UTF8
Codec ID/Info : UTF-8 Plain Text
Language : English
Default : No
Forced : No
Text #5
ID : 9
Format : UTF-8
Codec ID : S_TEXT/UTF8
Codec ID/Info : UTF-8 Plain Text
Language : Persian
Default : No
Forced : No
Text #6
ID : 10
Format : UTF-8
Codec ID : S_TEXT/UTF8
Codec ID/Info : UTF-8 Plain Text
Language : Hungarian
Default : No
Forced : No
Text #7
ID : 11
Format : UTF-8
Codec ID : S_TEXT/UTF8
Codec ID/Info : UTF-8 Plain Text
Language : Bulgarian
Default : No
Forced : No
Text #8
ID : 12
Format : UTF-8
Codec ID : S_TEXT/UTF8
Codec ID/Info : UTF-8 Plain Text
Language : Turkish
Default : No
Forced : No
Menu
00:00:00.000 : en:
00:07:11.800 : en:
00:20:06.800 : en:
00:34:13.239 : en:
00:38:18.000 : en:
00:43:43.439 : en:
00:51:21.600 : en:
00:56:03.840 : en:
01:01:01.680 : en:
01:06:16.800 : en:
01:15:11.600 : en:
01:19:51.120 : en:

Скриншоты



Яндекс.Метрика
Рейтинг@Mail.ru