БИ-2 - Spirit. Stadium Live [2014 г.] (Рок) [BDRip, 1080p] (15.03.2013) (Full HD)

 

Создавать темы 04-Июн-2014 03:07

-БИ-2 - Spirit. Stadium Live-- Год выпуска: 2014 г.
Страна: Россия
Жанр: Рок
Режиссер: Даниил Сальхов
Студия: Firecat Films, Planeta.RU
Продолжительность: 02:05:14-Качество видео: BDRip
Контейнер: MKV
Стандарт разрешения: 1080p
Видео кодек: H.264
Аудио кодек: AAC
Видео: MPEG-4 AVC, 9975 Кбит/с, 1920x1080 (16:9), 25 fps, 0.192 bit / pix
Аудио: 48 kHz, AAC, 2 ch, 317 Кбит/с-Описание: Здесь представлен первый концерт который был записан в марте в московском клубе Stadium Live — это было финальное шоу масштабного и мощнейшего по энергетике Spirit Tour`a, охватившего более 70 городов. В данной раздаче представлена Full HD-версия концерта. «Долой унылую телевизионщину — даешь клевое концертное видео!». Сказал Даниил Сальхов (режиссер). Именно так, в двух (хорошо, в семи) словах можно описать наш новый проект — первый в истории группы Би-2 тройной DVD. Этот год стал для нас невероятно событийным и плодотворным, в том числе и в плане концертов — впечатлениями, эмоциями и энергетикой которых мы очень хотим поделиться со всеми поклонниками Би-2. «Мы хотим вас пригласить в замечательное путешествие, в котором мы провели и проводим весь 2013 год.» Сказал Шура Би-2. Проиллюстрировать это «путешествие» каким-то одним концертом просто невозможно — слишком они разные. И по звучанию, и по общей атмосфере. Именно поэтому мы решили выпустить тройной DVD, в который войдет запись трех абсолютно не похожих между собой концертов Би-2 — музыканты предстанут в совершенно разных, но уже хорошо знакомых вам ипостасях — трех измерениях: электрическом, акустическом и с оркестром.-

Состав

Лёва Би-2 — вокал, акустическая гитара,
Шура Би-2 — вокал, соло-гитара, ритм-гитара,
Андрей «Звон» Звонков — гитара,
Максим «Лакмус» Андрющенко — бас-гитара,
Борис Лифшиц — ударные,
Яник Николенко — флейта, клавишные, перкуссия, мелодика, бэк-вокал.

Трэклист

01. Оптимист
02. Дурочка
03. Девушки
04. Революция
05. Молитва
06. Вечная призрачная встречная
07. Реки любви
08. Серебро
09. Блеф
10. Заноза
11. 1000 миль
12. Безвоздушная тревога
13. Скользкие улицы (акустика)
14. Муза
15. Варвара
16. Моя любовь
17. Мой рок-н-ролл (+ поппури песен русского рока от Шуры и представление участников группы)
18. Bowie
19. Последний герой
20. Полковнику никто не пишет
21. Её глаза

Media Info

General
Complete name : W:\Bi 2 - Live in Stadium Live (15.03.2013) (Full HD).mkv
Format : MPEG-4
Format profile : Base Media / Version 2
Codec ID : mp42
File size : 9.01 GiB
Duration : 2h 5mn
Overall bit rate : 10.3 Mbps
Encoded date : UTC 2014-05-28 11:50:57
Tagged date : UTC 2014-05-28 12:09:57
©TIM : 01:00:00:00
©TSC : 25
©TSZ : 1
Video
ID : 1
Format : AVC
Format/Info : Advanced Video Codec
Format profile : [email protected]
Format settings, CABAC : Yes
Format settings, ReFrames : 3 frames
Codec ID : avc1
Codec ID/Info : Advanced Video Coding
Duration : 2h 5mn
Bit rate mode : Variable
Bit rate : 9 975 Kbps
Width : 1 920 pixels
Height : 1 080 pixels
Display aspect ratio : 16:9
Frame rate mode : Variable
Frame rate : 25.000 fps
Minimum frame rate : 25.000 fps
Maximum frame rate : 25.025 fps
Standard : PAL
Color space : YUV
Chroma subsampling : 4:2:0
Bit depth : 8 bits
Scan type : Progressive
Bits/(Pixel*Frame) : 0.192
Stream size : 8.73 GiB (97%)
Language : English
Encoded date : UTC 2014-05-28 11:50:58
Tagged date : UTC 2014-05-28 11:50:58
Color primaries : BT.709-5, BT.1361, IEC 61966-2-4, SMPTE RP177
Transfer characteristics : BT.709-5, BT.1361
Matrix coefficients : BT.709-5, BT.1361, IEC 61966-2-4 709, SMPTE RP177
Audio
ID : 2
Format : AAC
Format/Info : Advanced Audio Codec
Format version : Version 4
Format profile : LC
Format settings, SBR : No
Codec ID : 40
Duration : 2h 5mn
Bit rate mode : Variable
Bit rate : 317 Kbps
Maximum bit rate : 416 Kbps
Channel(s) : 2 channels
Channel positions : Front: L R
Sampling rate : 48.0 KHz
Stream size : 284 MiB (3%)
Language : English
Encoded date : UTC 2014-05-28 11:50:58
Tagged date : UTC 2014-05-28 11:50:58

Скриншоты

Яндекс.Метрика
Рейтинг@Mail.ru