[ Сегодня на трекере фрилич! Идет свободное скачивание без начисления Download ]

Вода и огонь / Su ve Ates (Озджан Дениз / Özcan Deniz) [2013 г., Драма, мелодрама, BDRip, 720p] VO (shachter58) + Sub (Eng) + Original (Tur)

 

Создавать темы 06-Июн-2014 04:25

-Вода и огонь / Su ve Ates- Производство: Турция, Avsar Film, Dnz Film, SUMS* Film and Media
Год выпуска: 2013 г.
Жанр: Драма, мелодрама
Продолжительность: 01:48:53
Мировая премьера: 15 ноября 2013
Перевод: Любительский (одноголосый, закадровый) [shachter58]
Оригинальный аудиопоток: Турецкий-Режиссер: Озджан Дениз / Özcan Deniz
В ролях: Озджан Дениз, Ясемин Аллен, Пелин Акил, Октай Доган, Юсуф Акгюн, Бурчин Бирбен, Каан Чакыр, Джем Учан, Барыш Ялчын, Сера Токдемир, Метин Джошкун, Ирем Джандар-Описание: Эта история расскажет о любви Хасмета — человека, который решил пренебречь неписанными законами Востока, — и Ямур — наивной и невинной девушки, которая практически ничего не знает о горьких и суровых реалиях жизни. На пути к их счастью возникает множество препятствий, и, чтобы преодолеть их, влюблённым предстоит приложить максимум усилий.- -Качество видео: BDRip
Контейнер: MKV
Стандарт разрешения: 720p
Видео кодек: H.264
Аудио кодек: AC3
Видео: 1280x544 (2.35:1), 5 715 Kbps, 25.000 fps, 0.328 bit/pix
Аудио: 192 Kbps, 2 ch, 48.0 KHz [Rus, VO]
Аудио #2: 640 Kbps, 6 ch, 48.0 KHz [Tur, Original]
Cубтитры: английские

Media Info

General
Unique ID : 195479794709032565691564601303100426613 (0x931009FCE7C5A7ED94D9BA5921120975)
Complete name : D:\Water.And.Fire.2013.BDRip.720p.mkv
Format : Matroska
Format version : Version 4 / Version 2
File size : 4.98 GiB
Duration : 1h 48mn
Overall bit rate : 6 549 Kbps
Encoded date : UTC 2014-06-05 15:09:45
Writing application : mkvmerge v6.9.1 ('Blue Panther') 64bit built on Apr 18 2014 18:23:38
Writing library : libebml v1.3.0 + libmatroska v1.4.1
Video
ID : 1
Format : AVC
Format/Info : Advanced Video Codec
Format profile : [email protected]
Format settings, CABAC : Yes
Format settings, ReFrames : 4 frames
Codec ID : V_MPEG4/ISO/AVC
Duration : 1h 48mn
Bit rate : 5 715 Kbps
Width : 1 280 pixels
Height : 544 pixels
Display aspect ratio : 2.35:1
Frame rate mode : Constant
Frame rate : 25.000 fps
Color space : YUV
Chroma subsampling : 4:2:0
Bit depth : 8 bits
Scan type : Progressive
Bits/(Pixel*Frame) : 0.328
Stream size : 4.25 GiB (85%)
Writing library : x264 core 142 r2431 ac76440
Encoding settings : cabac=1 / ref=3 / deblock=1:0:0 / analyse=0x3:0x113 / me=hex / subme=7 / psy=1 / psy_rd=1.00:0.00 / mixed_ref=1 / me_range=16 / chroma_me=1 / trellis=1 / 8x8dct=1 / cqm=0 / deadzone=21,11 / fast_pskip=1 / chroma_qp_offset=-2 / threads=12 / lookahead_threads=2 / sliced_threads=0 / nr=0 / decimate=1 / interlaced=0 / bluray_compat=0 / constrained_intra=0 / bframes=3 / b_pyramid=2 / b_adapt=1 / b_bias=0 / direct=1 / weightb=1 / open_gop=0 / weightp=2 / keyint=250 / keyint_min=25 / scenecut=40 / intra_refresh=0 / rc_lookahead=40 / rc=2pass / mbtree=1 / bitrate=5715 / ratetol=1.0 / qcomp=0.60 / qpmin=0 / qpmax=69 / qpstep=4 / cplxblur=20.0 / qblur=0.5 / ip_ratio=1.40 / aq=1:1.00
Language : Turkish
Default : Yes
Forced : No
Audio #1
ID : 2
Format : AC-3
Format/Info : Audio Coding 3
Mode extension : CM (complete main)
Format settings, Endianness : Big
Codec ID : A_AC3
Duration : 1h 48mn
Bit rate mode : Constant
Bit rate : 192 Kbps
Channel(s) : 2 channels
Channel positions : Front: L R
Sampling rate : 48.0 KHz
Bit depth : 16 bits
Compression mode : Lossy
Stream size : 150 MiB (3%)
Title : shachter58
Language : Russian
Default : Yes
Forced : Yes
Audio #2
ID : 3
Format : AC-3
Format/Info : Audio Coding 3
Mode extension : CM (complete main)
Format settings, Endianness : Big
Codec ID : A_AC3
Duration : 1h 48mn
Bit rate mode : Constant
Bit rate : 640 Kbps
Channel(s) : 6 channels
Channel positions : Front: L C R, Side: L R, LFE
Sampling rate : 48.0 KHz
Bit depth : 16 bits
Compression mode : Lossy
Stream size : 498 MiB (10%)
Language : Turkish
Default : No
Forced : No
Text
ID : 4
Format : UTF-8
Codec ID : S_TEXT/UTF8
Codec ID/Info : UTF-8 Plain Text
Language : English
Default : No
Forced : No

Скриншоты

Яндекс.Метрика
Рейтинг@Mail.ru