[ Сегодня на трекере фрилич! Идет свободное скачивание без начисления Download ]

Копы из Перетопа (Максим Паперник) [2014 г., Детектив, комедия, SATRip]

 

Создавать темы 10-Июн-2014 06:56

-Копы из Перетопа-- Производство: Россия
Режиссер: Максим Паперник
Жанр: Детектив, комедия
Год выпуска: 2014 г.
Продолжительность: 01:32:00
В ролях: Никита Пресняков, Николай Добрынин, Мария Аронова, Светлана Косолапова, Анатолий Зиновенко, Максим Никитин, Александр Ярема, Константин Корецкий, Валерий Астахов, Алексей Смолка-Описание: В провинциальный российский городок, где самым большим происшествием является пропажа поросенка, прибывает молодой выпускник школы полиции и со всем пылом своей юной души начинает наводить порядок.-Качество видео: SATRip
Контейнер: AVI
Видео кодек: XviD
Аудио кодек: AC3
Видео: XviD, 1920 Кбит/с, 720х400, 25 fps, 0.27 bit / pix
Аудио: 48 kHz, MP3, 2 ch, 192 Кбит/с
Cубтитры: отсутствуют

Media Info

General
Complete name : W:\Kopy.s.peretopa.2014.SATRip.avi
Format : AVI
Format/Info : Audio Video Interleave
File size : 1.37 GiB
Duration : 1h 32mn
Overall bit rate : 2 123 Kbps
Writing application : VirtualDubModRus 1.5.10.2 (build 2542/release)
Writing library : VirtualDubMod build 2542/release
Video
ID : 0
Format : MPEG-4 Visual
Format profile : Advanced [email protected]
Format settings, BVOP : Yes
Format settings, QPel : No
Format settings, GMC : No warppoints
Format settings, Matrix : Custom
Codec ID : XVID
Codec ID/Hint : XviD
Duration : 1h 32mn
Bit rate : 1 921 Kbps
Width : 720 pixels
Height : 400 pixels
Display aspect ratio : 16:9
Frame rate : 25.000 fps
Color space : YUV
Chroma subsampling : 4:2:0
Bit depth : 8 bits
Scan type : Progressive
Bits/(Pixel*Frame) : 0.267
Stream size : 1.24 GiB (90%)
Writing library : XviD 73
Audio
ID : 1
Format : MPEG Audio
Format version : Version 1
Format profile : Layer 3
Codec ID : 55
Codec ID/Hint : MP3
Duration : 1h 32mn
Bit rate mode : Constant
Bit rate : 192 Kbps
Channel(s) : 2 channels
Sampling rate : 48.0 KHz
Stream size : 127 MiB (9%)
Alignment : Aligned on interleaves
Interleave, duration : 40 ms (1.00 video frame)
Interleave, preload duration : 504 ms
Writing library : LAME3.99r
Encoding settings : -m s -V 4 -q 2 -lowpass 18.6 -b 192

Скриншоты

Яндекс.Метрика
Рейтинг@Mail.ru