Нирвана / Nirvana (Габриэле Сальваторес / Gabriele Salvatores) [1997 г., фантастика, боевик, DVDRip] AVO (Гаврилов) + DVO (лицензия) + Original (Ita)

 

Создавать темы 12-Июн-2014 08:25

- -Нирвана / Nirvana- Год выпуска: 1997
Производство: Франция , Италия , Cecchi Gori Group Tiger Cinematografica, Colorado Film Production, Davis-Films
Жанр: фантастика, боевик
Продолжительность: 01:49:20
Перевод: Авторский (одноголосый, закадровый) [Гаврилов]
Перевод 2: Профессиональный (двухголосый, закадровый) [лицензия]
Оригинальный аудиопоток: итальянский
Субтитры: отсутствуют
Режиссёр: Габриэле Сальваторес / Gabriele Salvatores
В ролях: Кристофер Ламберт, Диего Абатантуоно, Серджо Рубини, Стефания Рокка, Аманда Сандрелли, Эмманюэль Сенье, Клаудио Бизио, Антонио Катания, Джиджио Алберти, Уго Конти
Описание: В жестоком и мрачном мире будущего гениальный программист Джимми, создаёт потрясающие компьютерные игры, однако, в его последнем шедевре под названием «Нирвана» возник сбой, в результате которого главный персонаж игры, Соло, обрёл разум. Осознавая собственную нереальность, Соло требует прекратить его никчёмную «жизнь». Но Джимми одержим желанием найти свою пропавшую подругу, и вскоре он отправляется на поиски тех, кто может знать, что произошло с Лизой. Постоянно сталкиваясь с опасностью в загадочных местах, о существовании которых известно лишь немногим, Джимми знакомится с подпольными хакерами и они соглашаются помочь ему. Но чтобы стереть игру, талантливому программисту и его друзьям придётся проникнуть в тщательно охраняемое здание корпорации, где хранится оригинал игры...
-Качество видео: DVDRip
Контейнер: AVI
Видео кодек: XviD
Аудио кодек: AC3
Видео: 720x392 (1.85:1), 1456 kbps, 25 fps, 0.206 bit/pixel
Аудио #1: AC3, 448 kbps, 6 ch, 48.0 kHz - Гаврилов
Аудио #2: AC3, 448 kbps, 6 ch, 48.0 kHz - Оригинал
Аудио #3: AC3, 448 kbps, 6 ch, 48.0 kHz - DVO

Media Info

Общее
Полное имя : Нирвана_ Nirvana.1997.[DVDRip].avi
Формат : AVI
Формат/Информация : Audio Video Interleave
Профиль формата : OpenDML
Настройки формата : rec
Размер файла : 2,14 Гбайт
Продолжительность : 1 ч. 49 м.
Общий поток : 2809 Кбит/сек
Программа кодирования : AVI-Mux GUI 1.17.8, Aug 30 2008 12:36:58
Видео
Идентификатор : 0
Формат : MPEG-4 Visual
Профиль формата : [email protected]
Параметр BVOP формата : Нет
Параметр QPel формата : Нет
Параметр GMC формата : Без точки перехода
Параметр матрицы формата : Default (H.263)
Идентификатор кодека : XVID
Идентификатор кодека/Подсказка : XviD
Продолжительность : 1 ч. 49 м.
Битрейт : 1456 Кбит/сек
Ширина : 720 пикселей
Высота : 392 пикселя
Соотношение сторон : 1,85:1
Частота кадров : 25,000 кадров/сек
Цветовое пространство : YUV
Субдискретизация насыщенности : 4:2:0
Битовая глубина : 8 бит
Тип развёртки : Прогрессивная
Метод сжатия : С потерями
Бит/(Пиксели*Кадры) : 0.206
Размер потока : 1,11 Гбайт (52%)
Библиотека кодирования : XviD 1.1.2 (UTC 2006-11-01)
Аудио #1
Идентификатор : 1
Формат : AC-3
Формат/Информация : Audio Coding 3
Расширение режима : CM (complete main)
Параметр Endianness формата : Big
Идентификатор кодека : 2000
Продолжительность : 1 ч. 49 м.
Вид битрейта : Постоянный
Битрейт : 448 Кбит/сек
Каналы : 6 каналов
Расположение каналов : Front: L C R, Side: L R, LFE
Частота : 48,0 КГц
Битовая глубина : 16 бит
Метод сжатия : С потерями
Размер потока : 350 Мбайт (16%)
Выравнивание : Соединение по промежуткам
Продолжительность промежутка : 64 мс. (1,60 видеокадра)
Время предзагрузки промежутка : 192 мс.
Аудио #2
Идентификатор : 2
Формат : AC-3
Формат/Информация : Audio Coding 3
Расширение режима : CM (complete main)
Параметр Endianness формата : Big
Идентификатор кодека : 2000
Продолжительность : 1 ч. 49 м.
Вид битрейта : Постоянный
Битрейт : 448 Кбит/сек
Каналы : 6 каналов
Расположение каналов : Front: L C R, Side: L R, LFE
Частота : 48,0 КГц
Битовая глубина : 16 бит
Метод сжатия : С потерями
Размер потока : 350 Мбайт (16%)
Выравнивание : Соединение по промежуткам
Продолжительность промежутка : 64 мс. (1,60 видеокадра)
Время предзагрузки промежутка : 192 мс.
Аудио #3
Идентификатор : 3
Формат : AC-3
Формат/Информация : Audio Coding 3
Расширение режима : CM (complete main)
Параметр Endianness формата : Big
Идентификатор кодека : 2000
Продолжительность : 1 ч. 49 м.
Вид битрейта : Постоянный
Битрейт : 448 Кбит/сек
Каналы : 6 каналов
Расположение каналов : Front: L C R, Side: L R, LFE
Частота : 48,0 КГц
Битовая глубина : 16 бит
Метод сжатия : С потерями
Размер потока : 350 Мбайт (16%)
Выравнивание : Соединение по промежуткам
Продолжительность промежутка : 64 мс. (1,60 видеокадра)
Время предзагрузки промежутка : 192 мс.

Cкриншоты

-
Яндекс.Метрика
Рейтинг@Mail.ru