Чужой. Антология / Alien. Anthology (Ридли Скотт / Ridley Scott, Джеймс Кэмерон / James Cameron, Дэвид Финчер / David Fincher, Жан-Пьер Жёне / Jean-Pierre Jeunet] [1979-1997, фантастика, триллер, ужасы, BDRip, 720p] MVO («Позитив-Мультимедиа»)

 

Создавать темы 15-Июн-2014 15:03

-Чужой / Alien / Director's Cut-«В космосе твой крик никто не услышит...»- Производство: США, Великобритания, Brandywine Productions, Twentieth Century-Fox Productions
Год выпуска: 1979 г.
Жанр: Фантастика, триллер, ужасы
Продолжительность: 01:55:49
Перевод: Профессиональный (многоголосый, закадровый) [«Позитив-Мультимедиа»]-Мировая премьера: 25 мая 1979
Релиз на DVD: 12 февраля 2009, «Двадцатый Век Фокс СНГ»
Релиз на Blu-ray: 11 ноября 2010, «Двадцатый Век Фокс СНГ»-Режиссер: Ридли Скотт / Ridley Scott
В ролях: Том Скерритт, Сигурни Уивер, Вероника Картрайт, Гарри Дин Стэнтон, Джон Хёрт, Йен Холм, Яфет Котто, Боладжи Бадеджо, Хелен Хортон, Эдди Пауэлл-Описание: В далеком будущем возвращающийся на Землю грузовой космический корабль перехватывает исходящий с неизвестной планеты неопознанный сигнал. Экипаж принимает решение совершить посадку и разобраться, в чем дело. Оказавшись на планете, астронавты повсюду обнаруживают неопознанные предметы, по виду напоминающие гигантские коконы...- -Качество видео: BDRip
Контейнер: MKV
Стандарт разрешения: 720p
Видео кодек: H.264
Аудио кодек: AC3
Видео: 1280x548 (2.35:1), 4 505 Kbps, 23.976 fps, 0.268 bit/pix
Аудио: 448 Kbps, 6 ch, 48.0 KHz
Cубтитры: отсутствуют
Размер: 4 ГБ

Media Info

General
Unique ID : 214035524832671855567242741028267223463 (0xA105BE1DE73E458F884FB9742023E9A7)
Complete name : D:\Чужие.Антология\1.Чужой.1979.DC.BDRip.720p.mkv
Format : Matroska
Format version : Version 2
File size : 4.01 GiB
Duration : 1h 55mn
Overall bit rate : 4 954 Kbps
Encoded date : UTC 2012-06-23 19:19:22
Writing application : mkvmerge v5.6.0 ('Kenya Kane') built on May 27 2012 16:44:04
Writing library : libebml v1.2.3 + libmatroska v1.3.0
Video
ID : 1
Format : AVC
Format/Info : Advanced Video Codec
Format profile : [email protected]
Format settings, CABAC : Yes
Format settings, ReFrames : 10 frames
Codec ID : V_MPEG4/ISO/AVC
Duration : 1h 55mn
Bit rate : 4 505 Kbps
Width : 1 280 pixels
Height : 548 pixels
Display aspect ratio : 2.35:1
Frame rate mode : Constant
Frame rate : 23.976 fps
Color space : YUV
Chroma subsampling : 4:2:0
Bit depth : 8 bits
Scan type : Progressive
Bits/(Pixel*Frame) : 0.268
Stream size : 3.57 GiB (89%)
Writing library : x264 core 110 r1820 fdcf2ae
Encoding settings : cabac=1 / ref=10 / deblock=1:-3:-2 / analyse=0x3:0x133 / me=umh / subme=10 / psy=1 / psy_rd=1.00:0.07 / mixed_ref=1 / me_range=32 / chroma_me=1 / trellis=2 / 8x8dct=1 / cqm=0 / deadzone=21,11 / fast_pskip=0 / chroma_qp_offset=-3 / threads=6 / sliced_threads=0 / nr=0 / decimate=0 / interlaced=0 / constrained_intra=0 / bframes=9 / b_pyramid=2 / b_adapt=2 / b_bias=0 / direct=3 / weightb=1 / open_gop=0 / weightp=2 / keyint=250 / keyint_min=23 / scenecut=40 / intra_refresh=0 / rc=2pass / mbtree=0 / bitrate=4505 / ratetol=1.0 / qcomp=0.65 / qpmin=0 / qpmax=51 / qpstep=4 / cplxblur=20.0 / qblur=0.5 / ip_ratio=1.40 / pb_ratio=1.30 / aq=1:0.70
Language : English
Default : Yes
Forced : No
Matrix coefficients : BT.709
Audio
ID : 2
Format : AC-3
Format/Info : Audio Coding 3
Mode extension : CM (complete main)
Format settings, Endianness : Big
Codec ID : A_AC3
Duration : 1h 55mn
Bit rate mode : Constant
Bit rate : 448 Kbps
Channel(s) : 6 channels
Channel positions : Front: L C R, Side: L R, LFE
Sampling rate : 48.0 KHz
Bit depth : 16 bits
Compression mode : Lossy
Stream size : 371 MiB (9%)
Title : Многоголосный, «Позитив-Мультимедиа»
Language : Russian
Default : Yes
Forced : No
--Чужие / Aliens / Special Edition-«В некоторых местах Вселенной вы не одиноки...»- Производство: США, Великобритания, Twentieth Century Fox Film Corporation, Brandywine Productions, SLM Production Group
Год выпуска: 1986 г.
Жанр: Ужасы, фантастика, боевик, триллер, приключения
Продолжительность: 02:34:26
Перевод: Профессиональный (многоголосый, закадровый) [«Позитив-Мультимедиа»]-Мировая премьера: 18 июля 1986
Релиз на DVD: 12 февраля 2009, «Двадцатый Век Фокс СНГ»-Режиссер: Джеймс Кэмерон / James Cameron
В ролях: Сигурни Уивер, Кэрри Хенн, Майкл Бьен, Лэнс Хенриксен, Пол Райзер, Билл Пэкстон, Уильям Хоуп, Дженетт Голдстин, Эл Мэтьюз, Марк Ролстон-Описание: Чужой - совершенный организм. Идеальная машина для убийства, чье физическое превосходство сочетается с его феноменальной жаждой уничтожения. Офицер Элен Рипли и команда космического корабля Ностромо один раз уже встретилась с такой тварью. В живых осталась только Элен.
Капсула с Элен найдена спасателями после многих лет блуждания в космосе. Ей сообщают, что планета L.V. 426 колонизирована, и ей придется вернуться туда, где начался ее кошмар, ибо связь с колонистами прервалась. И вот в составе группы космического десанта Рипли отправляется на проклятую планету. Но теперь их там поджидает не один Чужой, а тысячи. Кто сможет выжить в этой войне: чудовища, способные только убивать, или люди, способные мыслить?- -Качество видео: BDRip
Контейнер: MKV
Стандарт разрешения: 720p
Видео кодек: H.264
Аудио кодек: AC3
Видео: 1280x692 (1.85:1), 6 495 Kbps, 23.976 fps, 0.306 bit/pix
Аудио: 448 Kbps, 6 ch, 48.0 KHz
Cубтитры: отсутствуют
Размер: 7.48 ГБ

Media Info

General
Unique ID : 207327830588324329671504541494327783184 (0x9BF9E341D8BC7797B40DDFD5DE962F10)
Complete name : D:\Чужие.Антология\2.Чужие.1986.SE.BDRip.720p.mkv
Format : Matroska
Format version : Version 2
File size : 7.49 GiB
Duration : 2h 34mn
Overall bit rate : 6 942 Kbps
Encoded date : UTC 2012-06-23 19:09:08
Writing application : mkvmerge v5.6.0 ('Kenya Kane') built on May 27 2012 16:44:04
Writing library : libebml v1.2.3 + libmatroska v1.3.0
Video
ID : 1
Format : AVC
Format/Info : Advanced Video Codec
Format profile : [email protected]
Format settings, CABAC : Yes
Format settings, ReFrames : 9 frames
Codec ID : V_MPEG4/ISO/AVC
Duration : 2h 34mn
Bit rate : 6 495 Kbps
Width : 1 280 pixels
Height : 692 pixels
Display aspect ratio : 1.85:1
Frame rate mode : Constant
Frame rate : 23.976 fps
Color space : YUV
Chroma subsampling : 4:2:0
Bit depth : 8 bits
Scan type : Progressive
Bits/(Pixel*Frame) : 0.306
Stream size : 6.86 GiB (92%)
Writing library : x264 core 104 r1703 cd21d05
Encoding settings : cabac=1 / ref=9 / deblock=1:-3:-3 / analyse=0x3:0x113 / me=umh / subme=9 / psy=1 / psy_rd=0.90:0.00 / mixed_ref=1 / me_range=64 / chroma_me=1 / trellis=2 / 8x8dct=1 / cqm=0 / deadzone=21,11 / fast_pskip=0 / chroma_qp_offset=-4 / threads=12 / sliced_threads=0 / nr=0 / decimate=0 / interlaced=0 / constrained_intra=0 / bframes=6 / b_pyramid=2 / b_adapt=2 / b_bias=0 / direct=3 / weightb=1 / open_gop=0 / weightp=2 / keyint=250 / keyint_min=23 / scenecut=40 / intra_refresh=0 / rc=2pass / mbtree=0 / bitrate=6495 / ratetol=1.0 / qcomp=0.60 / qpmin=10 / qpmax=51 / qpstep=4 / cplxblur=20.0 / qblur=0.5 / ip_ratio=1.40 / pb_ratio=1.30 / aq=1:0.80
Language : English
Default : Yes
Forced : No
Audio
ID : 2
Format : AC-3
Format/Info : Audio Coding 3
Mode extension : CM (complete main)
Format settings, Endianness : Big
Codec ID : A_AC3
Duration : 2h 34mn
Bit rate mode : Constant
Bit rate : 448 Kbps
Channel(s) : 6 channels
Channel positions : Front: L C R, Side: L R, LFE
Sampling rate : 48.0 KHz
Bit depth : 16 bits
Compression mode : Lossy
Stream size : 495 MiB (6%)
Title : Многоголосный, «Позитив-Мультимедиа»
Language : Russian
Default : Yes
Forced : No
--Чужой³ / Alien³ / Special Edition-«Снова началось...»- Производство: США, Twentieth Century Fox Film Corporation, Brandywine Productions
Год выпуска: 1992 г.
Жанр: Ужасы, фантастика, боевик, триллер
Продолжительность: 02:24:52
Перевод: Профессиональный (многоголосый, закадровый) [«Позитив-Мультимедиа»]-Мировая премьера: 22 мая 1992
Релиз на DVD: 8 июля 2010, «Двадцатый Век Фокс СНГ»-Режиссер: Дэвид Финчер / David Fincher
В ролях: Сигурни Уивер, Чарльз Даттон, Чарльз Дэнс, Пол МакГэнн, Брайан Гловер, Ральф Браун, Дэниэл Уэбб, Кристофер Джон Филдс, Холт МакКэллэни, Лэнс Хенриксен-Описание: После бегства с планеты «Чужих» космический корабль Рипли терпит катастрофу вблизи так называемой планеты - тюрьмы, места, где отсиживают свой срок убийцы, насильники и прочие отбросы общества. Вместе с Рипли на эту планету попадает зародыш чужого, который и был причиной гибели корабля. Довольно быстро он превращается в гигантскую, зубастую тварь и начинает свое темное дело.
Его жертвами становятся десятки безоружных заключенных. Кровь брызжет фонтаном, куски человеческого мяса разлетаются во все стороны. И кажется, что остановить эту машину смерти не сможет никто, никто кроме отважной, но увы не бессмертной девушки по имени Рипли.- -Качество видео: BDRip
Контейнер: MKV
Стандарт разрешения: 720p
Видео кодек: H.264
Аудио кодек: AC3
Видео: 1280x542 (2.35:1), 4 974 Kbps, 23.976 fps, 0.299 bit/pix
Аудио: 448 Kbps, 6 ch, 48.0 KHz
Cубтитры: отсутствуют
Размер: 5.48 ГБ

Media Info

General
Unique ID : 199850141749198740119775384644315286230 (0x9659BCBBA93F9FA2B05B9E5AB4B08AD6)
Complete name : D:\Чужие.Антология\3.Чужой-3.1992.SE.BDRip.720p.mkv
Format : Matroska
Format version : Version 2
File size : 5.49 GiB
Duration : 2h 24mn
Overall bit rate : 5 423 Kbps
Encoded date : UTC 2012-06-23 09:29:30
Writing application : mkvmerge v5.6.0 ('Kenya Kane') built on May 27 2012 16:44:04
Writing library : libebml v1.2.3 + libmatroska v1.3.0
Video
ID : 1
Format : AVC
Format/Info : Advanced Video Codec
Format profile : [email protected]
Format settings, CABAC : Yes
Format settings, ReFrames : 7 frames
Codec ID : V_MPEG4/ISO/AVC
Duration : 2h 24mn
Bit rate : 4 974 Kbps
Width : 1 280 pixels
Height : 542 pixels
Display aspect ratio : 2.35:1
Frame rate mode : Constant
Frame rate : 23.976 fps
Color space : YUV
Chroma subsampling : 4:2:0
Bit depth : 8 bits
Scan type : Progressive
Bits/(Pixel*Frame) : 0.299
Stream size : 4.92 GiB (90%)
Writing library : x264 core 104 r1677 19df41a
Encoding settings : cabac=1 / ref=8 / deblock=1:-3:-3 / analyse=0x3:0x133 / me=tesa / subme=10 / psy=1 / psy_rd=1.10:0.00 / mixed_ref=1 / me_range=24 / chroma_me=1 / trellis=2 / 8x8dct=1 / cqm=0 / deadzone=21,11 / fast_pskip=0 / chroma_qp_offset=-2 / threads=6 / sliced_threads=0 / nr=0 / decimate=0 / interlaced=0 / constrained_intra=0 / bframes=6 / b_pyramid=1 / b_adapt=2 / b_bias=0 / direct=3 / weightb=1 / open_gop=0 / weightp=2 / keyint=250 / keyint_min=23 / scenecut=40 / intra_refresh=0 / rc=2pass / mbtree=0 / bitrate=4974 / ratetol=1.0 / qcomp=0.60 / qpmin=10 / qpmax=30 / qpstep=4 / cplxblur=20.0 / qblur=0.5 / ip_ratio=1.40 / pb_ratio=1.30 / aq=1:0.70
Language : English
Default : Yes
Forced : No
Audio
ID : 2
Format : AC-3
Format/Info : Audio Coding 3
Mode extension : CM (complete main)
Format settings, Endianness : Big
Codec ID : A_AC3
Duration : 2h 24mn
Bit rate mode : Constant
Bit rate : 448 Kbps
Channel(s) : 6 channels
Channel positions : Front: L C R, Side: L R, LFE
Sampling rate : 48.0 KHz
Bit depth : 16 bits
Compression mode : Lossy
Stream size : 464 MiB (8%)
Title : Многоголосный, «Позитив-Мультимедиа»
Language : Russian
Default : Yes
Forced : No
--Чужой 4: Воскрешение / Alien: Resurrection / Special Edition-«Главное - спастись...»- Производство: США, Brandywine Productions, Twentieth Century Fox Film Corporation
Год выпуска: 1997 г.
Жанр: Ужасы, фантастика, боевик, триллер
Продолжительность: 01:56:08
Перевод: Профессиональный (многоголосый, закадровый) [«Позитив-Мультимедиа»]-Мировая премьера: 6 ноября 1997-Режиссер: Жан-Пьер Жёне / Jean-Pierre Jeunet
В ролях: Сигурни Уивер, Вайнона Райдер, Доминик Пинон, Рон Перлман, Гари Дурдан, Майкл Уинкотт, Ким Флауэрс, Дэн Хедайя, Дж. Э. Фримен, Брэд Дуриф-Описание: Спустя двести лет после событий, произошедших на планете-тюрьме, группа ученых, опекаемых военным командованием, клонирует Эллен Рипли, чтобы с ее помощью заполучить детеныша инопланетного монстра. Вскоре он уже сам начинает плодиться, производя на свет новую породу - помесь кровожадного пришельца и... человека.- -Качество видео: BDRip
Контейнер: MKV
Стандарт разрешения: 720p
Видео кодек: H.264
Аудио кодек: AC3
Видео: 1280x546 (2.35:1), 6 580 Kbps, 23.976 fps, 0.393 bit/pix
Аудио: 448 Kbps, 6 ch, 48.0 KHz
Cубтитры: отсутствуют
Размер: 5.70 ГБ

Media Info

General
Unique ID : 233860727118316449025448414200615556088 (0xAFEFF00E3E41736CA4B606B72F5253F8)
Complete name : D:\Чужие.Антология\4.Чужой.Воскрешение.1997.SE.BDRip.720p.mkv
Format : Matroska
Format version : Version 2
File size : 5.70 GiB
Duration : 1h 56mn
Overall bit rate : 7 027 Kbps
Encoded date : UTC 2012-06-23 10:15:04
Writing application : mkvmerge v5.6.0 ('Kenya Kane') built on May 27 2012 16:44:04
Writing library : libebml v1.2.3 + libmatroska v1.3.0
Video
ID : 1
Format : AVC
Format/Info : Advanced Video Codec
Format profile : [email protected]
Format settings, CABAC : Yes
Format settings, ReFrames : 7 frames
Codec ID : V_MPEG4/ISO/AVC
Duration : 1h 56mn
Bit rate : 6 580 Kbps
Width : 1 280 pixels
Height : 546 pixels
Display aspect ratio : 2.35:1
Frame rate mode : Constant
Frame rate : 23.976 fps
Color space : YUV
Chroma subsampling : 4:2:0
Bit depth : 8 bits
Scan type : Progressive
Bits/(Pixel*Frame) : 0.393
Stream size : 5.22 GiB (92%)
Writing library : x264 core 104 r1677 19df41a
Encoding settings : cabac=1 / ref=8 / deblock=1:-3:-3 / analyse=0x3:0x133 / me=tesa / subme=10 / psy=1 / psy_rd=1.30:0.00 / mixed_ref=1 / me_range=24 / chroma_me=1 / trellis=2 / 8x8dct=1 / cqm=0 / deadzone=21,11 / fast_pskip=0 / chroma_qp_offset=-2 / threads=6 / sliced_threads=0 / nr=0 / decimate=0 / interlaced=0 / constrained_intra=0 / bframes=6 / b_pyramid=1 / b_adapt=2 / b_bias=0 / direct=3 / weightb=1 / open_gop=0 / weightp=2 / keyint=250 / keyint_min=23 / scenecut=40 / intra_refresh=0 / rc=2pass / mbtree=0 / bitrate=6580 / ratetol=1.0 / qcomp=0.60 / qpmin=10 / qpmax=30 / qpstep=4 / cplxblur=20.0 / qblur=0.5 / ip_ratio=1.40 / pb_ratio=1.30 / aq=1:0.70
Language : English
Default : Yes
Forced : No
Audio
ID : 2
Format : AC-3
Format/Info : Audio Coding 3
Mode extension : CM (complete main)
Format settings, Endianness : Big
Codec ID : A_AC3
Duration : 1h 56mn
Bit rate mode : Constant
Bit rate : 448 Kbps
Channel(s) : 6 channels
Channel positions : Front: L C R, Side: L R, LFE
Sampling rate : 48.0 KHz
Bit depth : 16 bits
Compression mode : Lossy
Stream size : 372 MiB (6%)
Title : Многоголосный, «Позитив-Мультимедиа»
Language : Russian
Default : Yes
Forced : No
-
Яндекс.Метрика
Рейтинг@Mail.ru