Люди в черном / Men in Black (Барри Зонненфелд / Barry Sonnenfeld) [1997 г., Фантастика, Комедия, Боевик, HDRip-AVC] AVO (Гаврилов, Живов, Антонов, Неизвестный) + MVO (R5, Карусель) + original (Eng)

 

Создавать темы 16-Июн-2014 02:17

Люди в черном / Men in Black
Год выпуска: 1997
Производство: США
Жанр: Фантастика, Комедия, Боевик
Продолжительность: 01:37:58
Перевод: Авторский (одноголосый, закадровый) Гаврилов, Живов, Антонов, Неизвестный
Перевод 2: Профессиональный (многоголосый, закадровый) R5, Карусель
Оригинальный аудиопоток: английский
Режиссер: Барри Зонненфелд / Barry Sonnenfeld
В ролях: Томми Ли Джоунс / Tommy Lee Jones , Уилл Смит / Will Smith , Линда Фиорентино / Linda Fiorentino , Винсент Д'Онофрио / Vincent D'Onofrio , Рип Торн / Rip Torn , Тони Шэлхоуб / Tony Shalhoub

Описание: Они - самый большой секрет земли. Они работают на неофициальное правительственное агентство, регулирующее деятельность инопланетян на Земле.
Они - это лучшая, последняя и единственная линия защиты Земли от отбросов вселенной. Их работа секретна, их оружие совершенно, им нет равных, они не оставляют следов. Они - это Люди в черном.

Качество видео: HDRip-AVC
Контейнер: MKV
Видео кодек: H.264
Аудио кодек: AC3
Видео: 3500 Kbps, 1052*572 pixels, 16:9, 23.976 fps
Аудио : AC3, 384 Kbps, 6 channels, 48.0 KHz, 16 bits - Гаврилов
Аудио #2: AC3, 384 Kbps, 6 channels, 48.0 KHz, 16 bits - Живов
Аудио #3: AC3, 192 Kbps, 2 channels, 48.0 KHz, 16 bits - Антонов
Аудио #4: AC3, 192 Kbps, 2 channels, 48.0 KHz, 16 bits - Неизвестный
Аудио #5: AC3, 384 Kbps, 6 channels, 48.0 KHz, 16 bits - Карусель
Аудио #6: AC3, 384 Kbps, 6 channels, 48.0 KHz, 16 bits - R5
Аудио #7: AC3, 384 Kbps, 6 channels, 48.0 KHz, 16 bits - eng

Media Info

C:\Users\LEHA\Desktop\Люди в чёрном-1.1997.HDRip-AVC.mkv
General
Unique ID : 243858669403581876410248215346980219210 (0xB77578AB11351FDC856AE367BF36694A)
Complete name : C:\Users\LEHA\Desktop\Люди в чёрном-1.1997.HDRip-AVC.mkv
Format : Matroska
Format version : Version 2
File size : 3.96 GiB
Duration : 1h 37mn
Overall bit rate : 5 789 Kbps
Encoded date : UTC 2014-06-15 14:13:18
Writing application : mkvmerge v5.8.0 ('No Sleep / Pillow') built on Sep 2 2012 15:37:04
Writing library : libebml v1.2.3 + libmatroska v1.3.0
Video #1
ID : 1
Format : AVC
Format/Info : Advanced Video Codec
Format profile : [email protected]
Format settings, CABAC : Yes
Format settings, ReFrames : 13 frames
Muxing mode : Header stripping
Codec ID : V_MPEG4/ISO/AVC
Duration : 1h 37mn
Bit rate : 3 500 Kbps
Width : 1 052 pixels
Height : 572 pixels
Display aspect ratio : 16:9
Frame rate : 23.976 fps
Color space : YUV
Chroma subsampling : 4:2:0
Bit depth : 8 bits
Scan type : Progressive
Bits/(Pixel*Frame) : 0.243
Stream size : 2.31 GiB (58%)
Writing library : x264 core 125 r2208 d9d2288
Encoding settings : cabac=1 / ref=13 / deblock=1:-1:-1 / analyse=0x3:0x133 / me=umh / subme=11 / psy=1 / psy_rd=1.00:0.15 / mixed_ref=1 / me_range=32 / chroma_me=1 / trellis=2 / 8x8dct=1 / cqm=0 / deadzone=21,11 / fast_pskip=1 / chroma_qp_offset=-3 / threads=12 / lookahead_threads=2 / sliced_threads=0 / nr=0 / decimate=1 / interlaced=0 / bluray_compat=0 / constrained_intra=0 / bframes=8 / b_pyramid=2 / b_adapt=2 / b_bias=0 / direct=3 / weightb=1 / open_gop=0 / weightp=2 / keyint=250 / keyint_min=23 / scenecut=40 / intra_refresh=0 / rc_lookahead=60 / rc=2pass / mbtree=1 / bitrate=3500 / ratetol=1.0 / qcomp=0.60 / qpmin=0 / qpmax=69 / qpstep=4 / cplxblur=20.0 / qblur=0.5 / ip_ratio=1.40 / aq=1:1.00
Audio #2
ID : 2
Format : AC-3
Format/Info : Audio Coding 3
Mode extension : CM (complete main)
Muxing mode : Header stripping
Codec ID : A_AC3
Duration : 1h 37mn
Bit rate mode : Constant
Bit rate : 384 Kbps
Channel(s) : 6 channels
Channel positions : Front: L C R, Side: L R, LFE
Sampling rate : 48.0 KHz
Bit depth : 16 bits
Compression mode : Lossy
Stream size : 269 MiB (7%)
Title : Гаврилов
Language : Russian
Audio #3
ID : 3
Format : AC-3
Format/Info : Audio Coding 3
Mode extension : CM (complete main)
Muxing mode : Header stripping
Codec ID : A_AC3
Duration : 1h 37mn
Bit rate mode : Constant
Bit rate : 384 Kbps
Channel(s) : 6 channels
Channel positions : Front: L C R, Side: L R, LFE
Sampling rate : 48.0 KHz
Bit depth : 16 bits
Compression mode : Lossy
Stream size : 269 MiB (7%)
Title : Живов
Language : Russian
Audio #4
ID : 4
Format : AC-3
Format/Info : Audio Coding 3
Mode extension : CM (complete main)
Muxing mode : Header stripping
Codec ID : A_AC3
Duration : 1h 37mn
Bit rate mode : Constant
Bit rate : 192 Kbps
Channel(s) : 2 channels
Channel positions : Front: L R
Sampling rate : 48.0 KHz
Bit depth : 16 bits
Compression mode : Lossy
Stream size : 135 MiB (3%)
Title : Антонов
Language : Russian
Audio #5
ID : 5
Format : AC-3
Format/Info : Audio Coding 3
Mode extension : CM (complete main)
Muxing mode : Header stripping
Codec ID : A_AC3
Duration : 1h 37mn
Bit rate mode : Constant
Bit rate : 192 Kbps
Channel(s) : 2 channels
Channel positions : Front: L R
Sampling rate : 48.0 KHz
Bit depth : 16 bits
Compression mode : Lossy
Stream size : 135 MiB (3%)
Title : Неизвестный
Language : Russian
Audio #6
ID : 6
Format : AC-3
Format/Info : Audio Coding 3
Mode extension : CM (complete main)
Muxing mode : Header stripping
Codec ID : A_AC3
Duration : 1h 37mn
Bit rate mode : Constant
Bit rate : 384 Kbps
Channel(s) : 6 channels
Channel positions : Front: L C R, Side: L R, LFE
Sampling rate : 48.0 KHz
Bit depth : 16 bits
Compression mode : Lossy
Stream size : 269 MiB (7%)
Title : Карусель
Language : Russian
Audio #7
ID : 7
Format : AC-3
Format/Info : Audio Coding 3
Mode extension : CM (complete main)
Muxing mode : Header stripping
Codec ID : A_AC3
Duration : 1h 37mn
Bit rate mode : Constant
Bit rate : 384 Kbps
Channel(s) : 6 channels
Channel positions : Front: L C R, Side: L R, LFE
Sampling rate : 48.0 KHz
Bit depth : 16 bits
Compression mode : Lossy
Stream size : 269 MiB (7%)
Title : R5
Language : Russian
Audio #8
ID : 8
Format : AC-3
Format/Info : Audio Coding 3
Mode extension : CM (complete main)
Muxing mode : Header stripping
Codec ID : A_AC3
Duration : 1h 37mn
Bit rate mode : Constant
Bit rate : 384 Kbps
Channel(s) : 6 channels
Channel positions : Front: L C R, Side: L R, LFE
Sampling rate : 48.0 KHz
Bit depth : 16 bits
Compression mode : Lossy
Stream size : 269 MiB (7%)
Title : eng
Language : English

log x.264

x264 [info]: frame I:1173  Avg QP:15.34  size:105792
x264 [info]: frame P:29902 Avg QP:18.47 size: 36313
x264 [info]: frame B:109877 Avg QP:21.13 size: 12381
x264 [info]: consecutive B-frames: 2.2% 2.9% 6.6% 19.2% 15.1% 36.6% 7.2% 7.2% 3.0%
x264 [info]: mb I I16..4: 9.9% 69.1% 21.0%
x264 [info]: mb P I16..4: 0.8% 13.5% 1.8% P16..4: 26.0% 32.7% 13.8% 3.4% 0.5% skip: 7.5%
x264 [info]: mb B I16..4: 0.1% 2.3% 0.2% B16..8: 36.0% 21.4% 3.8% direct: 6.2% skip:30.0% L0:42.1% L1:43.7% BI:14.2%
x264 [info]: 8x8 transform intra:83.8% inter:51.8%
x264 [info]: direct mvs spatial:99.0% temporal:1.0%
x264 [info]: coded y,uvDC,uvAC intra: 93.4% 80.6% 55.1% inter: 31.2% 19.8% 3.1%
x264 [info]: i16 v,h,dc,p: 38% 14% 13% 34%
x264 [info]: i8 v,h,dc,ddl,ddr,vr,hd,vl,hu: 9% 8% 10% 10% 14% 13% 12% 12% 13%
x264 [info]: i4 v,h,dc,ddl,ddr,vr,hd,vl,hu: 13% 10% 7% 8% 14% 14% 12% 11% 12%
x264 [info]: i8c dc,h,v,p: 43% 24% 18% 14%
x264 [info]: Weighted P-Frames: Y:5.6% UV:1.7%
x264 [info]: ref P L0: 42.8% 11.0% 18.4% 6.5% 5.8% 3.7% 3.6% 1.7% 1.7% 1.3% 1.3% 1.0% 1.1% 0.2% 0.0%
x264 [info]: ref B L0: 72.3% 11.7% 5.6% 3.0% 2.1% 1.7% 1.2% 0.7% 0.6% 0.6% 0.3% 0.2%
x264 [info]: ref B L1: 93.1% 6.9%
x264 [info]: kb/s:3497.62

Скриншоты

Яндекс.Метрика
Рейтинг@Mail.ru