Рио 2 / Rio 2 (Карлос Салдана/Carlos Saldanha)[2014.,Мультфильм, комедия, приключения, семейный] BDRip [H.264/720p-LQ] [Звук с TS]

 

Создавать темы 27-Июн-2014 12:16

Рио 2 / Rio 2- Год выпуска: 2014
Производство: США, 20th Century Fox Animation, Blue Sky Studios
Жанр: Мультфильм, комедия, приключения, семейный
Описание:
Блю, Джевел и их трое детей живут счастливой жизнью в волшебном городе Рио-де-Жанейро. Когда Джевел решает, что их детям нужно научиться жить как настоящим птицам, она настаивает на авантюрной поездке в дебри реки Амазонки. Там, пытаясь вписаться в новое окружение, Блю начинает беспокоиться, что может потерять Джевел и детей, идущих на зов дикой природы.
Режиссер: Карлос Салдана
Продюсер: Брюс Андерсон, Джон С. Донкин
Персонажи: Энн Хэтэуэй, Лесли Манн, Джейми Фокс, Джесси Айзенберг, Родриго Санторо, Энди Гарсиа, Трэйси Морган, Уилл Ай Эм, Джемейн Клемент, Кристин Ченоуэт
Продолжительность: 01:41:11
Качество видео: BDRip [H.264/720p-LQ] [Profile LQ]
Перевод: Дублированный [Звук с TS]
Вид субтитров: Вшитые отключаемые
Язык субтитров: Английский

Дата мировой премьеры: 20 марта 2014
Дата российской премьеры: 20 марта 2014, «Двадцатый Век Фокс СНГ»
Дата украинской премьеры: 20 марта 2014, «Ukrainian Film Distribution»
Видеокодек: MPEG-4 AVC/H.264
Битрейт видео: ~3118 kb/s
Размер кадра: 1280x536
Аудио 1: Русский: MP3, 48.0 KHz, 2 ch, 128 Kbps, CBR
Аудио 2: Английский: DTS ES, 48.0 KHz, 6 ch, 1510 Kbps, CBR
Сэмпл: Ссылка

MediaInfo:

Общее
Уникальный идентификатор : 178038121784732858315426304872609499442 (0x85F0E51EA3A5DDD4B5C304941A344932)
Полное имя : D:\Фильмы\Rio.2.2014.Dt.BDRip.720p.mkv
Формат : Matroska
Версия формата : Version 4 / Version 2
Размер файла : 3,36 Гбайт
Продолжительность : 1 ч. 41 м.
Общий поток : 4757 Кбит/сек
Дата кодирования : UTC 2014-06-26 04:34:54
Программа кодирования : mkvmerge v6.8.0 ('Theme for Great Cities') 32bit built on Mar 2 2014 21:27:07
Библиотека кодирования : libebml v1.3.0 + libmatroska v1.4.1
Видео
Идентификатор : 1
Формат : AVC
Формат/Информация : Advanced Video Codec
Профиль формата : [url=mailto:[email protected]][email protected][/url]
Параметр CABAC формата : Да
Параметр ReFrames формата : 5 кадров
Идентификатор кодека : V_MPEG4/ISO/AVC
Продолжительность : 1 ч. 41 м.
Битрейт : 3118 Кбит/сек
Ширина : 1280 пикселей
Высота : 536 пикселей
Соотношение сторон : 2,40:1
Режим частоты кадров : Постоянный
Частота кадров : 23,976 кадра/сек
Цветовое пространство : YUV
Субдискретизация насыщенности : 4:2:0
Битовая глубина : 8 бит
Тип развёртки : Прогрессивная
Бит/(Пиксели*Кадры) : 0.190
Размер потока : 2,14 Гбайт (64%)
Библиотека кодирования : x264 core 142 r2431 ac76440
Настройки программы : cabac=1 / ref=5 / deblock=1:0:0 / analyse=0x3:0x133 / me=umh / subme=8 / psy=1 / psy_rd=1.00:0.00 / mixed_ref=1 / me_range=16 / chroma_me=1 / trellis=1 / 8x8dct=1 / cqm=0 / deadzone=21,11 / fast_pskip=0 / chroma_qp_offset=-2 / threads=12 / lookahead_threads=2 / sliced_threads=0 / nr=0 / decimate=1 / interlaced=0 / bluray_compat=0 / constrained_intra=0 / bframes=3 / b_pyramid=2 / b_adapt=2 / b_bias=0 / direct=3 / weightb=1 / open_gop=0 / weightp=2 / keyint=250 / keyint_min=23 / scenecut=40 / intra_refresh=0 / rc_lookahead=50 / rc=2pass / mbtree=1 / bitrate=3118 / ratetol=1.0 / qcomp=0.60 / qpmin=0 / qpmax=69 / qpstep=4 / cplxblur=20.0 / qblur=0.5 / ip_ratio=1.40 / aq=1:1.00
Язык : English
Default : Да
Forced : Нет
Аудио #1
Идентификатор : 2
Формат : MPEG Audio
Версия формата : Version 1
Профиль формата : Layer 3
Режим : Joint stereo
Расширение режима : MS Stereo
Идентификатор кодека : A_MPEG/L3
Идентификатор кодека/Подсказка : MP3
Продолжительность : 1 ч. 41 м.
Вид битрейта : Постоянный
Битрейт : 128 Кбит/сек
Каналы : 2 канала
Частота : 48,0 КГц
Метод сжатия : С потерями
Размер потока : 92,6 Мбайт (3%)
Default : Да
Forced : Да
Аудио #2
Идентификатор : 3
Формат : DTS
Формат/Информация : Digital Theater Systems
Профиль формата : ES
Режим : 16
Параметр Endianness формата : Big
Идентификатор кодека : A_DTS
Продолжительность : 1 ч. 41 м.
Вид битрейта : Постоянный
Битрейт : 1509 Кбит/сек
Каналы : 6 каналов
Расположение каналов : Front: L C R, Side: L R, LFE
Частота : 48,0 КГц
Битовая глубина : 24 бит
Метод сжатия : С потерями
Размер потока : 1,07 Гбайт (32%)
Заголовок : English
Язык : English
Default : Нет
Forced : Нет
Текст
Идентификатор : 4
Формат : UTF-8
Идентификатор кодека : S_TEXT/UTF8
Идентификатор кодека/Информация : UTF-8 Plain Text
Заголовок : English Forced
Язык : English
Default : Да
Forced : Да
Меню
00:00:00.000 : en:00:00:00.000
00:03:10.816 : en:00:03:10.816
00:05:14.314 : en:00:05:14.314
00:08:49.362 : en:00:08:49.362
00:13:02.240 : en:00:13:02.240
00:17:36.305 : en:00:17:36.305
00:19:19.408 : en:00:19:19.408
00:22:30.349 : en:00:22:30.349
00:26:48.690 : en:00:26:48.690
00:29:00.155 : en:00:29:00.155
00:30:59.691 : en:00:30:59.691
00:33:46.566 : en:00:33:46.566
00:36:34.192 : en:00:36:34.192
00:39:20.233 : en:00:39:20.233
00:41:32.657 : en:00:41:32.657
00:45:05.119 : en:00:45:05.119
00:47:23.090 : en:00:47:23.090
00:49:58.162 : en:00:49:58.162
00:52:05.456 : en:00:52:05.456
00:55:38.919 : en:00:55:38.919
00:58:10.904 : en:00:58:10.904
01:02:11.394 : en:01:02:11.394
01:04:38.083 : en:01:04:38.083
01:07:03.937 : en:01:07:03.937
01:09:18.196 : en:01:09:18.196
01:10:21.342 : en:01:10:21.342
01:15:17.763 : en:01:15:17.763
01:17:00.157 : en:01:17:00.157
01:21:41.855 : en:01:21:41.855
01:25:24.619 : en:01:25:24.619
01:29:42.711 : en:01:29:42.711
01:32:27.959 : en:01:32:27.959

Avdump:

File: D:\Фильмы\Rio.2.2014.Dt.BDRip.720p.mkv
Duration: 01:41:11 (6071.3)
Track #1: video
lang: Unknown (1)
codc: V_MPEG4/ISO/AVC -> H264/AVC (22)
reso: 1280x536 -> Unknown (aka not common)
fram: hybrid (vfr)
rate: 3118 kbps (3117.53)
dura: 01:41:11 (6071.15)
size: 2.20 GB (2365871318)
Track #2: audio
lang: und -> Unknown (1)
codc: A_MPEG/L3 -> MP3 CBR (5)
chan: 2 -> Stereo
samp: 48000 Hz
rate: 128 kbps (128.05)
dura: 01:41:11 (6071.16)
size: 92.67 MB (97173354)
Track #3: audio (English)
lang: Unknown (1)
codc: A_DTS -> DTS (13)
chan: 6 -> 5.1 Surround
samp: 48000 Hz
rate: 1509 kbps (1509.10)
dura: 01:41:11 (6071.19)
size: 1.07 GB (1145254202)
Track #4: subtitles (English Forced)
lang: Unknown (1)
type: S_TEXT/UTF8 -> SRT (3)
size: 8.00 B (8)
Sizes: (check sanity)
disk: 3.36 GB (3610182108)
trac: 3.36 GB (3608298882) [based on track size]
bitr: 3.36 GB (3608290871) [based on bitrate]
tdif: 1.80 MB (1883226) 0.05%
bdif: 1.80 MB (1891236) 0.05%
Скриншоты:

Яндекс.Метрика
Рейтинг@Mail.ru