Право на убийство / Righteous Kill (Джон Эвнет / Jon Avnet) [2008 г., боевик, триллер, драма, криминал, детектив, BDRip-AVC] Dub + MVO (Рен ТВ) + AVO (А.Гаврилов, Ю.Немахов) + Original (Eng) + Sub (Rus, Eng)

 

Создавать темы 02-Июл-2014 10:57

-Право на убийство / Righteous Kill-- Производство: США
Год выпуска: 2008 г.
Жанр: боевик, триллер, драма, криминал, детектив
Продолжительность: 01:40:49
Мировая премьера: 10 сентября 2008
Российская премьера: 18 сентября 2008
Дата выхода DVD: 2 октября 2008
Перевод 1: Профессиональный (полное дублирование) [Лицензия]
Перевод 2: Профессиональный (многоголосый, закадровый) [Рен ТВ]
Перевод 3: Авторский (одноголосый, закадровый) [А.Гаврилов]
Перевод 4: Авторский (одноголосый, закадровый) [Ю.Немахов]
Оригинальный аудиопоток: Английский
Режиссер: Джон Эвнет / Jon Avnet-В ролях: Роберт Де Ниро, Аль Пачино, Кёртис Джексон, Карла Гуджино, Джон Легуизамо, Брайан Деннехи, Донни Уолберг, Ширли Бренер, Дэн Футтерман, Роб Дирдек, Марк Фамильетти, Бретт Грэнстафф, Фрэнк Джон Хьюз, Эдриэн Мартинес, Олег Тактаров, Терри Серпико, Лиза Колон-Зайас-Описание: Неуловимый убийца-мститель с помощью пистолета вершит свое правосудие над преступниками, сумевшими ускользнуть из лап закона. Напарники Дэвид Фиск и Томас Кован получают это запутанное дело. Однако неожиданный ход киллера путает все карты, и друзья оказываются на очень большом подозрении у коллег. Теперь им нужно любой ценой найти настоящего «стрелка», чтобы снять с себя обвинение в серийных убийствах.-
Качество видео: BDRip-AVC
Контейнер: MKV
Видео кодек: H.264
Аудио кодек: AC3
Видео: 1040x442 (2,35:1), 23.976 fps, 2409 kbps avg, 0.219 bit/pixel
Аудио #1: 48 kHz, AC3 Dolby Digital, 3/2 (L,C,R,l,r) + LFE ch, 384 kbps - Лицензионный Дубляж
Аудио #2: 48 kHz, AC3 Dolby Digital, Stereo, 192 kbps - Профессиональный многоголосый (Рен ТВ)
Аудио #3: 48 kHz, AC3 Dolby Digital, 3/2 (L,C,R,l,r) + LFE ch, 384 kbps - А.Гаврилов
Аудио #4: 48 kHz, AC3 Dolby Digital, 3/2 (L,C,R,l,r) + LFE ch, 384 kbps - Ю.Немахов
Аудио #3: 48 kHz, AC3 Dolby Digital, 3/2 (L,C,R,l,r) + LFE ch, 384 kbps - Оригинальная английская аудио дорожка
Cубтитры: русские, английские
Формат субтитров: softsub (SRT)
Дополнительно : Сохранены чаптеры

Media Info

General
Unique ID : 188976084382332501234091264873866823047 (0x8E2B784FDB0271E5A8BF672AFFD58587)
Format : Matroska
Format version : Version 4 / Version 2
File size : 2.91 GiB
Duration : 1h 40mn
Overall bit rate : 4 138 Kbps
Movie name : Право на убийство / Righteous Kill
Encoded date : UTC 2014-07-02 04:02:45
Writing application : mkvmerge v7.0.0 ('Where We Going') 64bit built on Jun 9 2014 15:16:27
Writing library : libebml v1.3.0 + libmatroska v1.4.1
Video
ID : 1
Format : AVC
Format/Info : Advanced Video Codec
Format profile : [email protected]
Format settings, CABAC : Yes
Format settings, ReFrames : 9 frames
Codec ID : V_MPEG4/ISO/AVC
Duration : 1h 40mn
Bit rate : 2 409 Kbps
Width : 1 040 pixels
Height : 442 pixels
Display aspect ratio : 2.35:1
Frame rate mode : Constant
Frame rate : 23.976 fps
Color space : YUV
Chroma subsampling : 4:2:0
Bit depth : 8 bits
Scan type : Progressive
Bits/(Pixel*Frame) : 0.219
Stream size : 1.64 GiB (56%)
Title : Righteous Kill
Writing library : x264 core 142 r2431 ac76440
Encoding settings : cabac=1 / ref=9 / deblock=1:-3:-3 / analyse=0x3:0x133 / me=umh / subme=10 / psy=1 / psy_rd=1.00:0.10 / mixed_ref=1 / me_range=48 / chroma_me=1 / trellis=2 / 8x8dct=1 / cqm=0 / deadzone=21,11 / fast_pskip=0 / chroma_qp_offset=-3 / threads=12 / lookahead_threads=1 / sliced_threads=0 / nr=0 / decimate=1 / interlaced=0 / bluray_compat=0 / constrained_intra=0 / bframes=5 / b_pyramid=2 / b_adapt=2 / b_bias=0 / direct=3 / weightb=1 / open_gop=0 / weightp=2 / keyint=240 / keyint_min=22 / scenecut=40 / intra_refresh=0 / rc_lookahead=40 / rc=2pass / mbtree=1 / bitrate=2409 / ratetol=1.0 / qcomp=0.60 / qpmin=10 / qpmax=51 / qpstep=4 / cplxblur=20.0 / qblur=0.5 / ip_ratio=1.40 / aq=1:1.00
Language : English
Default : Yes
Forced : No
Audio #1
ID : 2
Format : AC-3
Format/Info : Audio Coding 3
Mode extension : CM (complete main)
Format settings, Endianness : Big
Codec ID : A_AC3
Duration : 1h 40mn
Bit rate mode : Constant
Bit rate : 384 Kbps
Channel(s) : 6 channels
Channel positions : Front: L C R, Side: L R, LFE
Sampling rate : 48.0 KHz
Bit depth : 16 bits
Compression mode : Lossy
Stream size : 277 MiB (9%)
Title : Dub
Language : Russian
Default : Yes
Forced : No
Audio #2
ID : 3
Format : AC-3
Format/Info : Audio Coding 3
Mode extension : CM (complete main)
Format settings, Endianness : Big
Codec ID : A_AC3
Duration : 1h 40mn
Bit rate mode : Constant
Bit rate : 192 Kbps
Channel(s) : 2 channels
Channel positions : Front: L R
Sampling rate : 48.0 KHz
Bit depth : 16 bits
Compression mode : Lossy
Stream size : 138 MiB (5%)
Title : MVO Ren TV Stereo
Language : Russian
Default : No
Forced : No
Audio #3
ID : 4
Format : AC-3
Format/Info : Audio Coding 3
Mode extension : CM (complete main)
Format settings, Endianness : Big
Codec ID : A_AC3
Duration : 1h 40mn
Bit rate mode : Constant
Bit rate : 384 Kbps
Channel(s) : 6 channels
Channel positions : Front: L C R, Side: L R, LFE
Sampling rate : 48.0 KHz
Bit depth : 16 bits
Compression mode : Lossy
Stream size : 277 MiB (9%)
Title : AVO Gavrilov
Language : Russian
Default : No
Forced : No
Audio #4
ID : 5
Format : AC-3
Format/Info : Audio Coding 3
Mode extension : CM (complete main)
Format settings, Endianness : Big
Codec ID : A_AC3
Duration : 1h 40mn
Bit rate mode : Constant
Bit rate : 384 Kbps
Channel(s) : 6 channels
Channel positions : Front: L C R, Side: L R, LFE
Sampling rate : 48.0 KHz
Bit depth : 16 bits
Compression mode : Lossy
Stream size : 277 MiB (9%)
Title : AVO Nemakhov
Language : Russian
Default : No
Forced : No
Audio #5
ID : 6
Format : AC-3
Format/Info : Audio Coding 3
Mode extension : CM (complete main)
Format settings, Endianness : Big
Codec ID : A_AC3
Duration : 1h 40mn
Bit rate mode : Constant
Bit rate : 384 Kbps
Channel(s) : 6 channels
Channel positions : Front: L C R, Side: L R, LFE
Sampling rate : 48.0 KHz
Bit depth : 16 bits
Compression mode : Lossy
Stream size : 277 MiB (9%)
Title : Eng
Language : English
Default : No
Forced : No
Text #1
ID : 7
Format : UTF-8
Codec ID : S_TEXT/UTF8
Codec ID/Info : UTF-8 Plain Text
Title : Rus
Language : Russian
Default : No
Forced : No
Text #2
ID : 8
Format : UTF-8
Codec ID : S_TEXT/UTF8
Codec ID/Info : UTF-8 Plain Text
Title : Eng
Language : English
Default : No
Forced : No
Menu
00:00:00.000 : :HDR 01
00:06:48.000 : :HDR 02
00:11:24.000 : :HDR 03
00:22:45.000 : :HDR 04
00:31:13.000 : :HDR 05
00:38:38.000 : :HDR 06
00:44:48.000 : :HDR 07
00:49:47.000 : :HDR 08
00:57:26.000 : :HDR 09
01:04:18.000 : :HDR 10
01:12:23.000 : :HDR 11
01:18:56.000 : :HDR 12
01:26:44.000 : :HDR 13
01:30:01.000 : :HDR 14
01:33:15.000 : :HDR 15
01:40:41.000 : :HDR 16

Скриншоты

Яндекс.Метрика
Рейтинг@Mail.ru