Лекарь: Ученик Авиценны / The Physician (Филипп Штёльцль / Philipp Stölzl) [2013 г., драма, приключения, BDRip-AVC] [ESP Transfer] Dub (Лицензия) + Original (Eng) + Sub (Rus,Spa,Tur,Eng)

 

Создавать темы 02-Июл-2014 19:11

-Лекарь: Ученик Авиценны / The Physician (ESP Transfer)-- Производство: Германия
Год выпуска: 2013 г.
Жанр: драма, приключения
Продолжительность: 02:35:06
Мировая премьера: 25 декабря 2013
Российская премьера: 6 февраля 2014
Дата выхода DVD: 1 апреля 2014
Дата выхода Blu-Ray: 1 апреля 2014
Перевод: Профессиональный (полное дублирование)
Оригинальный аудиопоток: английский
Режиссер: Филипп Штёльцль / Philipp Stölzl-В ролях: Том Пэйн, Бен Кингсли, Эмма Ригби, Стеллан Скарсгард, Оливье Мартинес, Элиас ЭмБарек-Описание: Англия, XI век. Мать десятилетнего Роба Коула умирает в страшных мучениях: никто не знает ни природы её болезни, ни лекарства против неё. Маленький Роб, потрясенный до глубины души, во что бы то ни стало стремится разгадать эту тайну.
Ему суждено пройти долгий путь, от Англии до Персии, его учителями становятся сначала обыкновенный шарлатан Барбер, а потом — великий лекарь Авиценна. Мудрый учитель видит в Робе необыкновенный талант к медицине, но советует ему не спешить делать вещи, которые не соответствуют веку. Но Роб ни перед чем не останавливается в своем желании научиться спасать людей от смерти, и над его собственной жизнью нависает угроза, ведь он дважды пошел против предрассудков: использовал для научных исследований тело человека и полюбил женщину, отданную в жены другому.-
Качество видео: BDRip-AVC
Контейнер: MKV
Видео кодек: H.264
Аудио кодек: AC3
Видео: 1040x442 (2,35:1), 24.000 fps, 1920 kbps avg, 0.174 bit/pixel
Аудио #1 : 48 kHz, AC3 Dolby Digital, 3/2 (L,C,R,l,r) + LFE ch, 384 kbps - Лицензионный Дубляж
Аудио #2: 48 kHz, AC3 Dolby Digital, 3/2 (L,C,R,l,r) + LFE ch, 384 kbps - Оригинальная английская аудио дорожка
Cубтитры: русские,spanish,turkish,english
Формат субтитров: softsub (SRT)

Media Info

General
Unique ID : 221057986537537809613197351817557277824 (0xA64E3835DC83787B93039168F05B7C80)
Format : Matroska
Format version : Version 4 / Version 2
File size : 2.91 GiB
Duration : 2h 35mn
Overall bit rate : 2 690 Kbps
Movie name : Лекарь: Ученик Авиценны / The Physician
Encoded date : UTC 2014-07-02 12:11:25
Writing application : mkvmerge v6.9.1 ('Blue Panther') 64bit built on Apr 18 2014 18:23:38
Writing library : libebml v1.3.0 + libmatroska v1.4.1
Video
ID : 1
Format : AVC
Format/Info : Advanced Video Codec
Format profile : [email protected]
Format settings, CABAC : Yes
Format settings, ReFrames : 10 frames
Codec ID : V_MPEG4/ISO/AVC
Duration : 2h 35mn
Bit rate : 1 920 Kbps
Width : 1 040 pixels
Height : 442 pixels
Display aspect ratio : 2.35:1
Frame rate mode : Constant
Frame rate : 24.000 fps
Color space : YUV
Chroma subsampling : 4:2:0
Bit depth : 8 bits
Scan type : Progressive
Bits/(Pixel*Frame) : 0.174
Stream size : 2.02 GiB (69%)
Title : The Physician
Writing library : x264 core 142 r2431 ac76440
Encoding settings : cabac=1 / ref=10 / deblock=1:-3:-3 / analyse=0x3:0x133 / me=umh / subme=10 / psy=1 / psy_rd=1.00:0.10 / mixed_ref=1 / me_range=48 / chroma_me=1 / trellis=2 / 8x8dct=1 / cqm=0 / deadzone=21,11 / fast_pskip=0 / chroma_qp_offset=-3 / threads=12 / lookahead_threads=1 / sliced_threads=0 / nr=0 / decimate=1 / interlaced=0 / bluray_compat=0 / constrained_intra=0 / bframes=5 / b_pyramid=2 / b_adapt=2 / b_bias=0 / direct=3 / weightb=1 / open_gop=0 / weightp=2 / keyint=240 / keyint_min=22 / scenecut=40 / intra_refresh=0 / rc_lookahead=40 / rc=2pass / mbtree=1 / bitrate=1920 / ratetol=1.0 / qcomp=0.60 / qpmin=10 / qpmax=51 / qpstep=4 / cplxblur=20.0 / qblur=0.5 / ip_ratio=1.40 / aq=1:1.00
Language : English
Default : Yes
Forced : No
Audio #1
ID : 2
Format : AC-3
Format/Info : Audio Coding 3
Mode extension : CM (complete main)
Format settings, Endianness : Big
Codec ID : A_AC3
Duration : 2h 35mn
Bit rate mode : Constant
Bit rate : 384 Kbps
Channel(s) : 6 channels
Channel positions : Front: L C R, Side: L R, LFE
Sampling rate : 48.0 KHz
Bit depth : 16 bits
Compression mode : Lossy
Stream size : 426 MiB (14%)
Title : Dub
Language : Russian
Default : Yes
Forced : No
Audio #2
ID : 3
Format : AC-3
Format/Info : Audio Coding 3
Mode extension : CM (complete main)
Format settings, Endianness : Big
Codec ID : A_AC3
Duration : 2h 35mn
Bit rate mode : Constant
Bit rate : 384 Kbps
Channel(s) : 6 channels
Channel positions : Front: L C R, Side: L R, LFE
Sampling rate : 48.0 KHz
Bit depth : 16 bits
Compression mode : Lossy
Stream size : 426 MiB (14%)
Title : Eng
Language : English
Default : No
Forced : No
Text #1
ID : 4
Format : UTF-8
Codec ID : S_TEXT/UTF8
Codec ID/Info : UTF-8 Plain Text
Title : Rus
Language : Russian
Default : No
Forced : No
Text #2
ID : 5
Format : UTF-8
Codec ID : S_TEXT/UTF8
Codec ID/Info : UTF-8 Plain Text
Title : Spa
Language : Spanish
Default : No
Forced : No
Text #3
ID : 6
Format : UTF-8
Codec ID : S_TEXT/UTF8
Codec ID/Info : UTF-8 Plain Text
Title : Tur
Language : Turkish
Default : No
Forced : No
Text #4
ID : 7
Format : UTF-8
Codec ID : S_TEXT/UTF8
Codec ID/Info : UTF-8 Plain Text
Title : Eng
Language : English
Default : No
Forced : No
Menu
00:00:00.000 : :Chapter 01
00:14:53.707 : :Chapter 02
00:23:46.791 : :Chapter 03
00:32:22.750 : :Chapter 04
00:42:15.875 : :Chapter 05
00:53:59.457 : :Chapter 06
01:04:23.083 : :Chapter 07
01:14:37.750 : :Chapter 08
01:25:50.791 : :Chapter 09
01:36:40.250 : :Chapter 10
01:46:43.291 : :Chapter 11
01:55:46.250 : :Chapter 12
02:02:24.458 : :Chapter 13
02:12:18.667 : :Chapter 14
02:25:07.167 : :Chapter 15

Скриншоты

Дополнительная информация

Разница в изображении с данным трасфером очень существенна
Яндекс.Метрика
Рейтинг@Mail.ru