Чемпионат Мира 2014 / FIFA 2014 / Аргентина - Швейцария / 1/8 финала [01.07.2014, Спорт 1 HD, Футбол, H.264, 50fps, HDTVRip/720p]

 

Создавать темы 03-Июл-2014 17:01

Чемпионат Мира 2014 / FIFA 2014
Аргентина - Швейцария / 1/8 финала
-Год выпуска: 01.07.2014
Вид спорта: Футбол
Участники: Аргентина - Швейцария
Продолжительность: 02:32:49
Комментарий: русский (Владимир Стогниенко)-Автор рипа / записи: Striker
-Описание:
01 июля 2014 года, вторник. 20:00 мск
1/8 финала
Стадион: Арена Сан-Паулу - Коринтианс (Сан-Паулу, Бразилия) Зрителей: 62000 (вместимость – 65807)
Главный судья: Юнас Эрикссон (Сигтуна, Швеция); Ассистент: Матиас Класениус (Сигтуна, Швеция); Ассистент: Даниэль Варнмарк (Швеция)-Качество видео: HDTVRip
Контейнер: MKV
Видео кодек: H.264
Аудио кодек: AC3
Видео: 3950 Кбит/сек; 1280*720 (16:9); в 50,000 кадров/сек; 0.086 Бит/(Пиксели*Кадры); AVC
Аудио: 192 Кбит/сек; 48,0 КГц; 16 бит; 2 канала; АС-3

Составы команд

Аргентина
Вратари

1 Серхио Ромеро Монако
12 Агустин Орион Бока Хуниорс
21 Мариано Андухар Катания
Защитники
2 Эсекьель Гарай Бенфика[14]
3 Уго Кампаньяро Интернационале
4 Пабло Сабалета Манчестер Сити
15 Мартин Демикелис Манчестер Сити
16 Маркос Рохо Спортинг
17 Федерико Фернандес Наполи
23 Хосе Басанта Монтеррей
Полузащитники
5 Фернандо Гаго Бока Хуниорс
6 Лукас Билья Лацио
7 Анхель Ди Мария Реал Мадрид
8 Энцо Перес Бенфика
11 Макси Родригес Ньюэллс Олд Бойз
13 Аугусто Фернандес Сельта
14 Хавьер Маскерано Барселона
19 Рикардо Альварес Интернационале
Нападающие
9 Гонсало Игуаин Наполи
10 Лионель Месси (к) Барселона
18 Родриго Паласио Интернационале
20 Серхио Агуэро Манчестер Сити
22 Эсекьель Лавесси Пари Сен-Жермен
Главный тренер Алехандро Сабелья Аргентина-Швейцария
Вратари

1 Диего Бенальо Вольфсбург
12 Янн Зоммер Базель
21 Роман Бюрки Грассхоппер
Защитники
2 Штефан Лихтштайнер Ювентус
3 Рето Циглер Сассуоло
4 Филипп Сендерос Валенсия
5 Стив фон Берген Янг Бойз
6 Михаэль Ланг Грассхоппер
13 Рикардо Родригес Вольфсбург
20 Йоан Джуру Гамбург
22 Фабиан Шер Базель
Полузащитники
7 Транквилло Барнетта Айнтрахт (Франкфурт-на-Майне)
8 Гёкхан Инлер (к) Наполи
10 Гранит Джака Боруссия (Мёнхенгладбах)
11 Валон Бехрами Наполи
14 Валентин Штокер Базель
15 Блерим Джемайли Наполи
16 Желсон Фернандеш Фрайбург
23 Джердан Шакири Бавария
Нападающие
9 Харис Сеферович Реал Сосьедад
17 Марио Гавранович Цюрих
18 Адмир Мехмеди Фрайбург
19 Йосип Дрмич Нюрнберг
Главный тренер Оттмар Хитцфельд Германия

Media Info

Общее
Уникальный идентификатор : 170157428483743487947868535007981262028 (0x800320F1052EEFFC9ADC07F8AA02D4CC)
Формат : Matroska
Версия формата : Version 4 / Version 2
Размер файла : 4,51 Гбайт
Продолжительность : 2 ч. 32 м.
Общий поток : 4226 Кбит/сек
Дата кодирования : UTC 2014-07-01 19:05:59
Программа кодирования : mkvmerge v7.0.0 ('Where We Going') 64bit built on Jun 9 2014 15:16:27
Библиотека кодирования : libebml v1.3.0 + libmatroska v1.4.1
Видео
Идентификатор : 1
Формат : AVC
Формат/Информация : Advanced Video Codec
Профиль формата : [email protected]
Параметр CABAC формата : Да
Параметр ReFrames формата : 4 кадра
Параметр GOP формата : M=2, N=15
Идентификатор кодека : V_MPEG4/ISO/AVC
Продолжительность : 2 ч. 32 м.
Битрейт : 3950 Кбит/сек
Ширина : 1280 пикселей
Высота : 720 пикселей
Соотношение сторон : 16:9
Режим частоты кадров : Постоянный
Частота кадров : 50,000 кадров/сек
Цветовое пространство : YUV
Субдискретизация насыщенности : 4:2:0
Битовая глубина : 8 бит
Тип развёртки : Прогрессивная
Бит/(Пиксели*Кадры) : 0.086
Размер потока : 4,22 Гбайт (93%)
Default : Да
Forced : Нет
Основные цвета : BT.709
Характеристики трансфера : BT.709
Коэффициенты матрицы : BT.709
DURATION : 02:32:49.340000000
NUMBER_OF_FRAMES : 458467
NUMBER_OF_BYTES : 4619832887
_STATISTICS_WRITING_APP : mkvmerge v7.0.0 ('Where We Going') 64bit built on Jun 9 2014 15:16:27
_STATISTICS_WRITING_DATE_UTC : 2014-07-01 19:05:59
_STATISTICS_TAGS : BPS DURATION NUMBER_OF_FRAMES NUMBER_OF_BYTES
Аудио
Идентификатор : 2
Формат : AC-3
Формат/Информация : Audio Coding 3
Расширение режима : CM (complete main)
Параметр Endianness формата : Big
Идентификатор кодека : A_AC3
Продолжительность : 2 ч. 32 м.
Вид битрейта : Постоянный
Битрейт : 192 Кбит/сек
Каналы : 2 канала
Расположение каналов : Front: L R
Частота : 48,0 КГц
Битовая глубина : 16 бит
Метод сжатия : С потерями
Размер потока : 210 Мбайт (5%)
Язык : Russian
Default : Да
Forced : Нет
DURATION : 02:32:49.304000000
NUMBER_OF_FRAMES : 286538
NUMBER_OF_BYTES : 220061184
_STATISTICS_WRITING_APP : mkvmerge v7.0.0 ('Where We Going') 64bit built on Jun 9 2014 15:16:27
_STATISTICS_WRITING_DATE_UTC : 2014-07-01 19:05:59
_STATISTICS_TAGS : BPS DURATION NUMBER_OF_FRAMES NUMBER_OF_BYTES

Скриншоты

Яндекс.Метрика
Рейтинг@Mail.ru