[ Сегодня на трекере фрилич! Идет свободное скачивание без начисления Download ]

Мачо и ботан / 21 Jump Street (2012) BDRip

 

Создавать темы 15-Июл-2014 08:16

-Мачо и ботан / 21 Jump Street (2012) BDRip- Год выпуска: 2012
Производство: США / Columbia Pictures
Жанр: Боевик, Комедия, Криминал
Описание фильма:
Двое новоиспеченных горе-полицейских отправляются на сверхсекретное задание. Им предстоит заново стать учениками средней школы, в которой процветает наркоторговля.
Режиссер: Фил Лорд, Крис Миллер
Актеры: Джона Хилл, Ченнинг Татум, Бри Ларсон, Дэйв Франко, Роб Риггл, Айс Кьюб, ДеРэй Дэвис, Дакс Флэйм, Крис Парнелл, Элли Кемпер
Продолжительность: 01:49:37
Качество видео: BDRip
Перевод: Дублированный


Дата мировой премьеры: 12 марта 2012
Дата российской премьеры: 12 апреля 2012, «WDSSPR»
Дата выхода DVD релиза: 15 мая 2012, «Columbia/Sony»
Видеокодек: Xvid
Битрейт видео: ~1934 Кбит/сек
Размер кадра: 720x304
Аудио #1: AC3 5.1, 448 Кбит/сек - Дублированный
Аудио #2: AC3 5.1, 448 Кбит/сек - Оригинальная звуковая дорожка (Английский)

MediaInfo:

Общее
Формат : AVI
Формат/Информация : Audio Video Interleave
Профиль формата : OpenDML
Размер файла : 2,18 Гбайт
Продолжительность : 1 ч. 49 м.
Общий поток : 2848 Кбит/сек
Программа кодирования : VirtualDubModRus 1.5.10.2 (build 2542/release)
Видео
Идентификатор : 0
Формат : MPEG-4 Visual
Профиль формата : Advanced [email protected]
Параметр BVOP формата : 1
Параметр QPel формата : Нет
Параметр GMC формата : Без точки перехода
Параметр матрицы формата : Выборочная
Идентификатор кодека : XVID
Идентификатор кодека/Подсказка : XviD
Продолжительность : 1 ч. 49 м.
Битрейт : 1934 Кбит/сек
Ширина : 720 пикселей
Высота : 304 пикселя
Соотношение сторон : 2,35:1
Частота кадров : 23,976 кадра/сек
Цветовое пространство : YUV
Субдискретизация насыщенности : 4:2:0
Битовая глубина : 8 бит
Тип развёртки : Прогрессивная
Метод сжатия : С потерями
Бит/(Пиксели*Кадры) : 0.369
Размер потока : 1,48 Гбайт (68%)
Библиотека кодирования : XviD 72
Аудио #1
Идентификатор : 1
Формат : AC-3
Формат/Информация : Audio Coding 3
Расширение режима : CM (complete main)
Параметр Endianness формата : Big
Идентификатор кодека : 2000
Продолжительность : 1 ч. 49 м.
Вид битрейта : Постоянный
Битрейт : 448 Кбит/сек
Каналы : 6 каналов
Расположение каналов : Front: L C R, Side: L R, LFE
Частота : 48,0 КГц
Битовая глубина : 16 бит
Метод сжатия : С потерями
Размер потока : 351 Мбайт (16%)
Выравнивание : Разделение по промежуткам
Продолжительность промежутка : 42 мс. (1,00 видеокадр)
Время предзагрузки промежутка : 500 мс.
Аудио #2
Идентификатор : 2
Формат : AC-3
Формат/Информация : Audio Coding 3
Расширение режима : CM (complete main)
Параметр Endianness формата : Big
Идентификатор кодека : 2000
Продолжительность : 1 ч. 49 м.
Вид битрейта : Постоянный
Битрейт : 448 Кбит/сек
Каналы : 6 каналов
Расположение каналов : Front: L C R, Side: L R, LFE
Частота : 48,0 КГц
Битовая глубина : 16 бит
Метод сжатия : С потерями
Размер потока : 351 Мбайт (16%)
Выравнивание : Разделение по промежуткам
Продолжительность промежутка : 42 мс. (1,00 видеокадр)
Время предзагрузки промежутка : 500 мс.
Скриншоты: Время раздачи: 10:00-24:00
Яндекс.Метрика
Рейтинг@Mail.ru