Адский бункер: Восстание спецназа / Outpost: Rise of the Spetsnaz (Киран Паркер) [2013, Ужасы, боевик, HDRip] от BitTracker

 

Создавать темы 27-Окт-2013 18:43

Информация о фильме
Название: Адский бункер: Восстание спецназа
Оригинальное название: Outpost: Rise of the Spetsnaz
Год выхода: 2013
Жанр: Ужасы, боевик
Режиссер: Киран Паркер / Kieran Parker
В ролях: Брайан Ларкин, Иван Камарас, Майкл МакКелл, Велибор Топик, Лоуренс Посса, Бен Ламберт, Алек Утгофф, Винс Дочерти, Гарет Моррисон, Лео Хорсфилд
О фильме:
После нападения на колонну немецких солдат в руки спецгруппы Красной Армии попадают секретные документы, в которых содержится информация о месте расположения тайной нацистской лаборатории. Командир Долохов принимает решение найти и ликвидировать лабораторию, но внезапное нападение обрекает его на плен и сущий ад в подземельях таинственного бункера.

Страна: Великобритания
Продолжительность: 01:27:03
Перевод: Любительское (одноголосое) [den904]
Файл
Кодек: XviD
Качество: HDRip (Исх. BDRip 720p)
Видео: 688x288 (2.39:1), 23.976 fps, XviD build 50 ~1058 kbps avg, 0.22 bit/pixel
Звук: 48 kHz, MPEG Layer 3, 2 ch, ~128.00 kbps avg
Субтитры: нет
Семпл

MediaInfo

Общее
Полное имя : S:ФильмыАдский бункер Восстание спецназа. 2013. HDRip (AleksSin).avi
Формат : AVI
Формат/Информация : Audio Video Interleave
Размер файла : 745 Мбайт
Продолжительность : 1 ч. 27 м.
Общий поток : 1196 Кбит/сек
Программа кодирования : VirtualDubMod 1.5.10.3 | www.virtualdub-fr.org || (build 2550/release)
Библиотека кодирования : VirtualDubMod build 2550/release
Видео
Идентификатор : 0
Формат : MPEG-4 Visual
Профиль формата : Advanced [email protected]
Параметр BVOP формата : 2
Параметр QPel формата : Нет
Параметр GMC формата : Без точки перехода
Параметр матрицы формата : Default (H.263)
Идентификатор кодека : XVID
Идентификатор кодека/Подсказка : XviD
Продолжительность : 1 ч. 27 м.
Битрейт : 1058 Кбит/сек
Ширина : 688 пикс.
Высота : 288 пикс.
Соотношение сторон : 2,40:1
Частота кадров : 23,976 кадр/сек
Цветовое пространство : YUV
Подвыборка цветности : 4:2:0
Битовая глубина : 8 бит
Тип развёртки : Прогрессивная
Метод сжатия : С потерями
Бит/(Пиксели*Кадры) : 0.223
Размер потока : 659 Мбайт (89%)
Библиотека кодирования : XviD 1.2.1 (UTC 2008-12-04)
Аудио
Идентификатор : 1
Формат : MPEG Audio
Версия формата : Version 1
Профиль формата : Layer 3
Идентификатор кодека : 55
Идентификатор кодека/Подсказка : MP3
Продолжительность : 1 ч. 27 м.
Вид битрейта : Постоянный
Битрейт : 128 Кбит/сек
Каналы : 2 канала
Частота : 48,0 КГц
Метод сжатия : С потерями
Размер потока : 79,7 Мбайт (11%)
Выравнивание : Соединение по промежуткам
Продолжительность промежутка : 42 мс. (1,00 видеокадр)
Время предзагрузки промежутка : 504 ms
Библиотека кодирования : LAME3.99r
Настройки программы : -m s -V 4 -q 2 -lowpass 17 -b 128

Скриншоты


_________________
Подпись отключена за нарушение правил форума

Создавать темы 26-Янв-2016 20:32 (спустя 2 года 2 месяца)

Топик был перенесен из форума Зарубежные Новинки (HD*Rip/LQ, DVDRip) в форум Зарубежные Фильмы (HD*Rip/LQ, DVDRip, SATRip, VHSRip)
T_O_M
Яндекс.Метрика
Рейтинг@Mail.ru