В твоих глазах / In Your Eyes (Брин Хилл / Brin Hill) [2014 г., фантастика, драма, мелодрама, комедия, WEB-DLRip] VO [Евгений Данилов] + Original (Eng)

 

Создавать темы 27-Июл-2014 04:32

-В твоих глазах / In Your Eyes-- Производство: США / Bellwether Pictures, Night and Day Pictures
Год выпуска: 2014 г.
Жанр: фантастика, драма, мелодрама, комедия
Продолжительность: 01:45:44
Мировая премьера: 20 апреля 2014
Перевод: Любительский (одноголосый, закадровый) [Евгений Данилов]
Оригинальный аудиопоток: английский
Режиссер: Брин Хилл / Brin Hill-В ролях: Зои Кэзен, Майкл Сталь-Дэвид, Никки Рид, Стив Харрис, Марк Фойерстин, Дженнифер Грей, Стив Хоуи, Кресс Уильямс, Престон Бэйли, Рид Бирни, Лиз Стаубер, Браден Фицджералд-Описание: Фильм рассказывает историю двух абсолютно разных людей, которые находятся в разных городах и ведут совершенно отличающуюся друг от друга жизнь. Но они оба имеют мощную связь между собой, и могут слышать и видеть друг друга на расстоянии.-
Качество видео: WEB-DLRip
Контейнер: AVI
Видео кодек: XviD
Аудио кодек: AC3
Видео: 704x400 (1.76:1), 23.976 fps, XviD build 73 ~1579 kbps avg, 0.23 bit/pixel
Аудио: 48 kHz, AC3 Dolby Digital, 2/0 (L,R) ch, ~192 kbps
Аудио #2: 48 kHz, AC3 Dolby Digital, 2/0 (L,R) ch, ~192 kbps
Cубтитры: отсутствуют

Media Info

Общее
Полное имя : W:\V_tvoih_glazah_2014 WEB-DLRip.avi
Формат : AVI
Формат/Информация : Audio Video Interleave
Размер файла : 1,46 Гбайт
Продолжительность : 1 ч. 45 м.
Общий поток : 1978 Кбит/сек
Программа кодирования : VirtualDubMod 1.5.10.3 | www.virtualdub-fr.org || (build 2550/release)
Библиотека кодирования : VirtualDubMod build 2550/release
Видео
Идентификатор : 0
Формат : MPEG-4 Visual
Профиль формата : Advanced [email protected]
Параметр BVOP формата : 1
Параметр QPel формата : Нет
Параметр GMC формата : Без точки перехода
Параметр матрицы формата : Выборочная
Идентификатор кодека : XVID
Идентификатор кодека/Подсказка : XviD
Продолжительность : 1 ч. 45 м.
Битрейт : 1580 Кбит/сек
Ширина : 704 пикс.
Высота : 400 пикс.
Соотношение сторон : 16:9
Частота кадров : 23,976 кадр/сек
Цветовое пространство : YUV
Подвыборка цветности : 4:2:0
Битовая глубина : 8 бит
Тип развёртки : Прогрессивная
Метод сжатия : С потерями
Бит/(Пиксели*Кадры) : 0.234
Размер потока : 1,17 Гбайт (80%)
Библиотека кодирования : XviD 73
Аудио #1
Идентификатор : 1
Формат : AC-3
Формат/Информация : Audio Coding 3
Расширение режима : CM (complete main)
Идентификатор кодека : 2000
Продолжительность : 1 ч. 45 м.
Вид битрейта : Постоянный
Битрейт : 192 Кбит/сек
Канал(ы) : 2 канала(ов)
Расположение каналов : Front: L R
Частота : 48,0 КГц
Битовая глубина : 16 бит
Метод сжатия : С потерями
Размер потока : 145 Мбайт (10%)
Выравнивание : Разделение по промежуткам
Продолжительность промежутка : 42 мс. (1,00 видеокадр)
Время предзагрузки промежутка : 500 ms
Аудио #2
Идентификатор : 2
Формат : AC-3
Формат/Информация : Audio Coding 3
Расширение режима : CM (complete main)
Идентификатор кодека : 2000
Продолжительность : 1 ч. 45 м.
Вид битрейта : Постоянный
Битрейт : 192 Кбит/сек
Канал(ы) : 2 канала(ов)
Расположение каналов : Front: L R
Частота : 48,0 КГц
Битовая глубина : 16 бит
Метод сжатия : С потерями
Размер потока : 145 Мбайт (10%)
Выравнивание : Разделение по промежуткам
Продолжительность промежутка : 42 мс. (1,00 видеокадр)
Время предзагрузки промежутка : 500 ms

Скриншоты

Яндекс.Метрика
Рейтинг@Mail.ru