[ Сегодня на трекере фрилич! Идет свободное скачивание без начисления Download ]

Штамм / The Strain / Сезон: 1 / Серии: 1-3 из 13 (Гильермо дель Торо / Guillermo del Toro, Дэвид Семел / David Semel, Кит Гордон / Keith Gordon) [2014 г., Ужасы, фантастика, драма, WEB-DLRip] MVO (BaibaKo) + Original (Eng) [обновляемая]

 

Создавать темы 30-Июл-2014 15:12

- -Штамм / The Strain- Производство: США, Mirada
Жанр: Ужасы, фантастика, драма
Год выпуска: 2014 г.
Продолжительность: ~00:55:00
Мировая премьера: 13 июля 2014
Перевод: Профессиональный (многоголосый, закадровый) [BaibaKo]
Оригинальный аудиопоток: английский-Режиссер: Гильермо дель Торо / Guillermo del Toro, Дэвид Семел / David Semel, Кит Гордон / Keith Gordon
В ролях: Дэвид Брэдли, Энн Бетанкорт, Николай Вич, Педро Мигель Арсе, Дрю Нельсон, Джо Веркилло, Джим Уотсон, Алекс Пэкстон, Джонатан Поттс, Рихард Заммель-Описание: В аэропорту Нью-Йорка совершает посадку трансатлантический лайнер с мертвыми пассажирами. В дальнейшем пассажиры оживают, только это уже не люди, а исчадия ада, беспощадные вампиры…- -Качество видео: WEB-DLRip
Контейнер: AVI
Видео кодек: XviD
Аудио кодек: MP3
Видео: 720x400 (1.80:1), 23.976 fps, XviD build 50 ~1501 kbps avg, 0.22 bit/pixel
Аудио: 48 kHz, MPEG Layer 3, 2 ch, ~192.00 kbps avg - RUS
Аудио #2: 48 kHz, MPEG Layer 3, 2 ch, ~192.00 kbps avg - ENG
Cубтитры: отсутствуют

Список серий

01. Ночь заражения / Night Zero
02. Ящик / The Box
03. Всё прошло гладко / Gone Smooth

Media Info

General
Complete name : C:\Users\Ivan\Desktop\Штамм (Сезон 1) WEB-DLRip - BaibaKo\The.Strain.s01e01.avi
Format : AVI
Format/Info : Audio Video Interleave
File size : 974 MiB
Duration : 1h 11mn
Overall bit rate : 1 901 Kbps
Writing application : VirtualDubMod 1.5.10.2 (build 2540/release)
Writing library : VirtualDubMod build 2540/release
Video
ID : 0
Format : MPEG-4 Visual
Format profile : Advanced [email protected]
Format settings, BVOP : 2
Format settings, QPel : No
Format settings, GMC : No warppoints
Format settings, Matrix : Default (H.263)
Codec ID : XVID
Codec ID/Hint : XviD
Duration : 1h 11mn
Bit rate : 1 503 Kbps
Width : 720 pixels
Height : 400 pixels
Display aspect ratio : 16:9
Frame rate : 23.976 fps
Color space : YUV
Chroma subsampling : 4:2:0
Bit depth : 8 bits
Scan type : Progressive
Compression mode : Lossy
Bits/(Pixel*Frame) : 0.218
Stream size : 770 MiB (79%)
Writing library : XviD 1.2.1 (UTC 2008-12-04)
Audio #1
ID : 1
Format : MPEG Audio
Format version : Version 1
Format profile : Layer 3
Mode : Joint stereo
Mode extension : MS Stereo
Codec ID : 55
Codec ID/Hint : MP3
Duration : 1h 11mn
Bit rate mode : Constant
Bit rate : 192 Kbps
Channel(s) : 2 channels
Sampling rate : 48.0 KHz
Compression mode : Lossy
Stream size : 98.4 MiB (10%)
Alignment : Aligned on interleaves
Interleave, duration : 42 ms (1.00 video frame)
Interleave, preload duration : 504 ms
Audio #2
ID : 2
Format : MPEG Audio
Format version : Version 1
Format profile : Layer 3
Mode : Joint stereo
Mode extension : MS Stereo
Codec ID : 55
Codec ID/Hint : MP3
Duration : 1h 11mn
Bit rate mode : Constant
Bit rate : 192 Kbps
Channel(s) : 2 channels
Sampling rate : 48.0 KHz
Compression mode : Lossy
Stream size : 98.4 MiB (10%)
Alignment : Aligned on interleaves
Interleave, duration : 42 ms (1.00 video frame)
Interleave, preload duration : 504 ms

Скриншоты

Внимание! Раздача ведётся путём добавления новых серий!

при каждом добавлении создётся новый торрент. Чтобы начать докачку новой серии, пользователям необходимо сделать следующее:
(1) остановить скачивание,
(2) удалить старый торрент у себя из клиента (старые серии удалять не надо),
(3) скачать новый торрент и запустить его у себя в клиенте, при этом указать клиенту путь в старую папку куда и должно происходить скачивание новых серий.
Ваш клиент при этом должен произвести хеширование (проверку) старой папки и будет докачивать только те серии которых у вас ещё нет. Старые серии при этом не удаляются, а продолжают раздаваться!
Eсли вы уже удалили старые серии, то предотвратить повторную закачку старых серий можно, отжав галочку в соответствующих местах при запуске нового торрента. (по возможности, желательно не удалять старые серии как можно дольше чтобы релизёр не столько продолжал раздавать старые серии, а смог сконцентрироваться на новых)
/spoiler]
Яндекс.Метрика
Рейтинг@Mail.ru