Сумасшедший вид любви / Crazy Kind of Love (Сара Сигель-Магнесс / Sarah Siegel-Magness) [2013 г., драма, мелодрама, комедия, HDRip] VO [ViruseProject]

 

Создавать темы 30-Июл-2014 21:19

-Сумасшедший вид любви / Crazy Kind of Love--
Производство: США
Год выпуска: 2013 г.
Жанр: драма, мелодрама, комедия
Продолжительность: 01:26:15
Мировая премьера: 31 мая 2013
Перевод: Любительский (одноголосый, закадровый) [ViruseProject]
Режиссер: Сара Сигель-Магнесс / Sarah Siegel-Magness-В ролях:
Вирджиния Мэдсен, Сэм Трэммелл, Зак Гилфорд, Аманда Крю, Грэхэм Роджерс, Мадлен Зима, Кристоффер Райан Уинтерс, Энтони ЛаПалья, Элисон Мичалка, Лин Шэй-Описание:
Семья Августы разваливается после того, как она выгнала мужа из дома за интрижку на стороне. Однако вскоре в жизнь семьи врывается Бетти, подружка одного из сыновей, и переворачивает их жизнь с ног на голову, выводя семью из коматозного состояния.
-
Качество видео: HDRip
Контейнер: AVI
Видео кодек: XviD
Аудио кодек: AC3
Видео: 720x304; 2033 Kbps; 25.000 fps; 0.371 Bit/Pixel
Аудио: 384 kbps; 6 ch; 48.0 kHz

Media Info

General
Complete name : D:\Torrents\Сумасшедший вид любви .2013.HDRip.avi
Format : AVI
Format/Info : Audio Video Interleave
File size : 1.46 GiB
Duration : 1h 26mn
Overall bit rate : 2 426 Kbps
Writing application : VirtualDubMod 1.5.10.2 (build 2540/release)
Writing library : VirtualDubMod build 2540/release
Video
ID : 0
Format : MPEG-4 Visual
Format profile : Advanced [email protected]
Format settings, BVOP : Yes
Format settings, QPel : No
Format settings, GMC : No warppoints
Format settings, Matrix : Default (MPEG)
Codec ID : XVID
Codec ID/Hint : XviD
Duration : 1h 26mn
Bit rate : 2 033 Kbps
Width : 720 pixels
Height : 304 pixels
Display aspect ratio : 2.35:1
Frame rate : 25.000 fps
Color space : YUV
Chroma subsampling : 4:2:0
Bit depth : 8 bits
Scan type : Progressive
Compression mode : Lossy
Bits/(Pixel*Frame) : 0.371
Stream size : 1.22 GiB (84%)
Writing library : XviD 1.2.1 (UTC 2008-12-04)
Audio
ID : 1
Format : AC-3
Format/Info : Audio Coding 3
Mode extension : CM (complete main)
Format settings, Endianness : Big
Codec ID : 2000
Duration : 1h 26mn
Bit rate mode : Constant
Bit rate : 384 Kbps
Channel(s) : 6 channels
Channel positions : Front: L C R, Side: L R, LFE
Sampling rate : 48.0 KHz
Bit depth : 16 bits
Compression mode : Lossy
Stream size : 237 MiB (16%)
Alignment : Split accross interleaves
Interleave, duration : 40 ms (1.00 video frame)
Interleave, preload duration : 500 ms
Яндекс.Метрика
Рейтинг@Mail.ru