Lyambiko - Inner Sense (2007) [FLAC|Lossless]<Vocal Jazz>

 

Создавать темы 03-Авг-2014 05:29

-Lyambiko - Inner Sense (2007)- Год: 2007
Жанр: Vocal Jazz
Продолжительность: 00:57:01
Издатель (лейбл): Sony BMG Europe
Номер по каталогу: 88697060032
Кодек: FLAC
Битрейт: Lossless
Тип рипа: image+.cue
Треклист:
01. Inner Sense
02. Fool's Paradise
03. Break Your Bread
04. Inside Outside
05. Restless
06. Windows Of The Past
07. Winter Sun
08. Look into the Sun
09. Non Stop
10. Bangalore Local
11. Somebody to Love
12. Stompin' At The Savoy
13. Little Girl Blue

Отчёт ЕАС&#58;

Exact Audio Copy V0.99 prebeta 5 from 4. May 2009
EAC extraction logfile from 29. March 2011, 1:20
Lyambiko / Inner Sense
Used drive  : Optiarc DVD RW AD-5200S   Adapter: 2  ID: 0
Read mode               : Secure
Utilize accurate stream : Yes
Defeat audio cache      : Yes
Make use of C2 pointers : No
Read offset correction                      : 48
Overread into Lead-In and Lead-Out          : No
Fill up missing offset samples with silence : Yes
Delete leading and trailing silent blocks   : No
Null samples used in CRC calculations       : Yes
Used interface                              : Native Win32 interface for Win NT & 2000
Used output format              : User Defined Encoder
Selected bitrate                : 128 kBit/s
Quality                         : High
Add ID3 tag                     : No
Command line compressor         : D:\Program Files\FLAC\flac.exe
Additional command line options : -8 -V %s
TOC of the extracted CD
     Track |   Start  |  Length  | Start sector | End sector
    ---------------------------------------------------------
        1  |  0:00.00 |  3:13.05 |         0    |    14479
        2  |  3:13.05 |  4:46.59 |     14480    |    35988
        3  |  7:59.64 |  5:24.01 |     35989    |    60289
        4  | 13:23.65 |  4:45.19 |     60290    |    81683
        5  | 18:09.09 |  3:55.65 |     81684    |    99373
        6  | 22:04.74 |  5:27.49 |     99374    |   123947
        7  | 27:32.48 |  4:02.43 |    123948    |   142140
        8  | 31:35.16 |  5:04.56 |    142141    |   164996
        9  | 36:39.72 |  4:10.07 |    164997    |   183753
       10  | 40:50.04 |  3:53.38 |    183754    |   201266
       11  | 44:43.42 |  4:53.40 |    201267    |   223281
       12  | 49:37.07 |  1:04.36 |    223282    |   228117
       13  | 50:41.43 |  6:19.50 |    228118    |   256592
Range status and errors
Selected range
     Filename E:\Torrent\Lyambiko 2007 - Inner Sence\Lyambiko - Inner Sense.wav
     Peak level 97.1 %
     Range quality 99.9 %
     Test CRC 1BA27229
     Copy CRC 1BA27229
     Copy OK
No errors occurred
AccurateRip summary
Track  1  not present in database
Track  2  not present in database
Track  3  not present in database
Track  4  not present in database
Track  5  not present in database
Track  6  not present in database
Track  7  not present in database
Track  8  not present in database
Track  9  not present in database
Track 10  not present in database
Track 11  not present in database
Track 12  not present in database
Track 13  not present in database
None of the tracks are present in the AccurateRip database
End of status report

Отчёт auCDtect Task manager&#58;

-----------------------
DON'T MODIFY THIS FILE
-----------------------
PERFORMER: auCDtect Task Manager, ver. 1.6.0 RC1 build 1.6.0.1
Copyright (c) 2008-2010 y-soft. All rights reserved
http://y-soft.org
ANALYZER: auCDtect: CD records authenticity detector, version 0.8.2
Copyright (c) 2004 Oleg Berngardt. All rights reserved.
Copyright (c) 2004 Alexander Djourik. All rights reserved.
FILE: Lyambiko - Inner Sense.flac
  Size: 341723674 Hash: 3322747951E910C9910929BE57B21418 Accuracy: -m0
  Conclusion: CDDA 100%
  Signature: 30AF04A4788894E6A319F6A8D5030F7780E39B17
Время раздачи: по возможности
Яндекс.Метрика
Рейтинг@Mail.ru