[ Сегодня на трекере фрилич! Идет свободное скачивание без начисления Download ]

Выжившая / За пределами / Extant / Сезон: 1 / Серии: 5 из 13 (Пэрис Барклай / Paris Barclay) [2014 г., фантастика, триллер, драма, WEB-DLRip] MVO (LostFilm) [Обновляемая]

 

Создавать темы 10-Авг-2014 01:34

-Выжившая / Extant«Life always finds a way»-- Производство: США
Жанр: фантастика, триллер, драма
Год выпуска: 2014 г.
Продолжительность: 00:42:00-Мировая премьера: 9 июля 2014
Российская премьера: 10 июля 2014-Релиз:
Перевод: Многоголосый закадровый, профессиональный-Режиссер: Пэрис Барклай / Paris Barclay, Мэтт Эрл Бисли / Matt Earl Beesley, Аллен Култер / Allen Coulter-В ролях:
Холи Берри (Молли Вудс), Горан Вишнич (Джон Вудс), Пирс Гэнон (Итан Вудс), Брэд Бейер (Хармон Крюгер), Кэмрин Мэйнхайм (Сэм Бартон), Грэйс Гаммер (Джули Желино), Хироюки Санада (Хидэки Ясумото)-Описание:
Астронавт Молли Вудс (Холли Берри) возвращается на Землю после 13-месячной одиночной космической экспедиции и обнаруживает, что беременна, и зачатие произошло на орбитальной станции. Женщина не помнит, как это произошло, а потому предпринимает отчаянные попытки скрыть случившееся от своего мужа Джона (Горан Вишнич) и усыновленного андроида Итана (Пирс Гэнон), с которыми по прибытии у нее складываются напряженные отношения. Помимо семейных проблем, Молли также ждут неприятности с руководством Центра управления полетами. Ее начальство отказывается верить в то, что Вудс случайно удалила несколько часов видео с внутренних камер наблюдения. Они ведут свое расследование и проявляют подозрительный интерес к возможному внеземному контакту. Молли придется приложить все усилия, чтобы спасти себя и семью от неминуемой опасности.-Сезон: 1
Серии: 5 из 13 серий
Продолжительность: ~ 00:41:00 мин серия-Качество видео: WEB-DLRip
Контейнер: AVI
Видео кодек: XviD
Аудио кодек: MP3
Видео: MPEG-4 Visual at 1202 Кбит/сек: 720 x 400 (1.800) at 23.976 fps: 0.17 Бит/Пиксели
Аудио Rus: MPEG Audio at 192 Кбит/сек, 2 канала, 48,0 КГц |LostFilm|
Cубтитры: отсутствуют
- -

Список серий:

  • Адаптация (Re-Entry)
  • Вымирание (Extinct)
  • Жаль, что тебя здесь нет (Wish You Were Here)
  • Убежище (Shelter)
  • Что творится на Земле? (What on Earth Is Wrong?)


  • (Nightmare)

  • (More in Heaven and Earth)

  • (Incursion)

  • (Care and Feeding)

  • (A Pack of Cards)

  • (A New World)

  • (Before the Blood)

  • (***)
-

Media Info

Общее
Полное имя                               : E:\_Сериалы\_Сериалы\Выжившая\Extant.s01.LostFilm\Extant.S01E01.rus.LostFilm.TV.avi
Формат                                   : AVI
Формат/Информация                        : Audio Video Interleave
Размер файла                             : 414 Мбайт
Продолжительность                        : 41 м.
Режим общего битрейта                    : Переменный
Общий поток                              : 1402 Кбит/сек
Программа кодирования                    : Nandub v1.0rc2
Библиотека кодирования                   : Nandub build 1853/release
Видео
Идентификатор                            : 0
Формат                                   : MPEG-4 Visual
Профиль формата                          : Advanced [email protected]
Параметр BVOP формата                    : Нет
Параметр QPel формата                    : Нет
Параметр GMC формата                     : Без точки перехода
Параметр матрицы формата                 : Default (H.263)
Идентификатор кодека                     : XVID
Идентификатор кодека/Подсказка           : XviD
Продолжительность                        : 41 м.
Битрейт                                  : 1202 Кбит/сек
Ширина                                   : 720 пикселей
Высота                                   : 400 пикселей
Соотношение сторон                       : 16:9
Частота кадров                           : 23,976 кадра/сек
Цветовое пространство                    : YUV
Субдискретизация насыщенности            : 4:2:0
Битовая глубина                          : 8 бит
Тип развёртки                            : Прогрессивная
Метод сжатия                             : С потерями
Бит/(Пиксели*Кадры)                      : 0.174
Размер потока                            : 355 Мбайт (86%)
Библиотека кодирования                   : XviD 1.2.1 (UTC 2008-12-04)
Аудио
Идентификатор                            : 1
Формат                                   : MPEG Audio
Версия формата                           : Version 1
Профиль формата                          : Layer 3
Режим                                    : Joint stereo
Расширение режима                        : MS Stereo
Идентификатор кодека                     : 55
Идентификатор кодека/Подсказка           : MP3
Продолжительность                        : 41 м.
Вид битрейта                             : Переменный
Битрейт                                  : 192 Кбит/сек
Каналы                                   : 2 канала
Частота                                  : 48,0 КГц
Метод сжатия                             : С потерями
Размер потока                            : 55,2 Мбайт (13%)
Выравнивание                             : Соединение по промежуткам
Продолжительность промежутка             : 24  мс. (0,58 видеокадр)
Время предзагрузки промежутка            : 508  мс.
Библиотека кодирования                   : LAME3.97b
Настройки программы                      : -m j -V 4 -q 3 -lowpass 18.6 --abr 192
-

Скриншот c названием фильма

-Скриншоты:
-

Еще

-

Внимание! Раздача ведётся путём добавления новых серий!

Внимание! Раздача ведётся путём добавления новых серий; при каждом добавлении создаётся новый торрент. Чтобы начать докачку новой серии, пользователям необходимо сделать следующее:
(1) остановить скачивание,
(2) удалить старый торрент у себя из клиента (старые серии удалять не надо),
(3) скачать новый торрент и запустить его у себя в клиенте вместо старого, при этом указать клиенту путь в старую папку куда и должно происходить скачивание новых серий.
Ваш клиент при этом должен произвести хеширование (проверку) старой папки (если не производит сам - помогите ему сделать это), и будет докачивать только те серии которых у вас ещё нет. Старые серии при этом не удаляются, а продолжают раздаваться!
Eсли вы уже удалили старые серии, то предотвратить повторную закачку старых серий можно, отжав галочку в соответствующих местах при запуске нового торрента.
-Добавлена пятая серия первого сезона
Яндекс.Метрика
Рейтинг@Mail.ru