Дмитрий Глуховский - Будущее [2013 г., роман-утопия, Дмитрий Хазанович, MP3, 23:28:17, 192 kbps]

 

Создавать темы 19-Авг-2014 03:16

-Будущее-- Год выпуска: 2013 г.
Автор: Дмитрий Глуховский
Исполнитель: Дмитрий Хазанович (Дим Димыч)
Жанр: Роман-утопия, Социальная фантастика, альтернативная история
Издательство: Творческая группа "СамИздат"
Тип аудиокниги: аудиокнига
Аудио кодек: MP3
Битрейт аудио: 192 kbps
Время звучания: 23:28:17

Media Info

Общее
Полное имя : E:\БУДУЩЕЕ\001.mp3
Формат : MPEG Audio
Размер файла : 65,8 Мбайт
Продолжительность : 47 м.
Режим общего битрейта : Постоянный
Общий поток : 192 Кбит/сек
Альбом/Исполнитель : Дмитрий Хазанович
Трек : Будущее
Исполнитель : Дмитрий Глуховский
Жанр : Аудиокнига
Дата записи : 2013-09-09
Обложка : Yes
Тип обложки : Cover (front)
MIME-тип обложки : image/jpeg
Engineer : Microsoft Dima
Аудио
Формат : MPEG Audio
Версия формата : Version 1
Профиль формата : Layer 3
Продолжительность : 47 м.
Вид битрейта : Постоянный
Битрейт : 192 Кбит/сек
Каналы : 2 канала
Частота : 44,1 КГц
Метод сжатия : С потерями
Размер потока : 65,6 Мбайт (100%)
Общее
Полное имя : E:\БУДУЩЕЕ\002.mp3
Формат : MPEG Audio
Размер файла : 53,7 Мбайт
Продолжительность : 39 м.
Режим общего битрейта : Постоянный
Общий поток : 192 Кбит/сек
Альбом/Исполнитель : Дмитрий Хазанович
Трек : Будущее
Исполнитель : Дмитрий Глуховский
Жанр : Аудиокнига
Дата записи : 2013-09-10
Обложка : Yes
Тип обложки : Cover (front)
MIME-тип обложки : image/jpeg
Engineer : Microsoft Dima
Аудио
Формат : MPEG Audio
Версия формата : Version 1
Профиль формата : Layer 3
Продолжительность : 39 м.
Вид битрейта : Постоянный
Битрейт : 192 Кбит/сек
Каналы : 2 канала
Частота : 44,1 КГц
Метод сжатия : С потерями
Размер потока : 53,6 Мбайт (100%)
Общее
Полное имя : E:\БУДУЩЕЕ\003.mp3
Формат : MPEG Audio
Размер файла : 66,6 Мбайт
Продолжительность : 48 м.
Режим общего битрейта : Постоянный
Общий поток : 192 Кбит/сек
Альбом/Исполнитель : Дмитрий Хазанович
Трек : Будущее
Исполнитель : Дмитрий Глуховский
Жанр : Аудиокнига
Дата записи : 2013-09-11
Обложка : Yes
Тип обложки : Cover (front)
MIME-тип обложки : image/jpeg
Engineer : Microsoft Dima
Аудио
Формат : MPEG Audio
Версия формата : Version 1
Профиль формата : Layer 3
Продолжительность : 48 м.
Вид битрейта : Постоянный
Битрейт : 192 Кбит/сек
Каналы : 2 канала
Частота : 44,1 КГц
Метод сжатия : С потерями
Размер потока : 66,5 Мбайт (100%)
Общее
Полное имя : E:\БУДУЩЕЕ\004.mp3
Формат : MPEG Audio
Размер файла : 79,9 Мбайт
Продолжительность : 58 м.
Режим общего битрейта : Постоянный
Общий поток : 192 Кбит/сек
Альбом/Исполнитель : Дмитрий Хазанович
Трек : Будущее
Исполнитель : Дмитрий Глуховский
Жанр : Аудиокнига
Дата записи : 2013-09-12
Обложка : Yes
Тип обложки : Cover (front)
MIME-тип обложки : image/jpeg
Engineer : Microsoft Dima
Аудио
Формат : MPEG Audio
Версия формата : Version 1
Профиль формата : Layer 3
Продолжительность : 58 м.
Вид битрейта : Постоянный
Битрейт : 192 Кбит/сек
Каналы : 2 канала
Частота : 44,1 КГц
Метод сжатия : С потерями
Размер потока : 79,7 Мбайт (100%)
Общее
Полное имя : E:\БУДУЩЕЕ\005.mp3
Формат : MPEG Audio
Размер файла : 61,3 Мбайт
Продолжительность : 44 м.
Режим общего битрейта : Постоянный
Общий поток : 192 Кбит/сек
Альбом/Исполнитель : Дмитрий Хазанович
Трек : Будущее
Исполнитель : Дмитрий Глуховский
Жанр : Аудиокнига
Дата записи : 2013-09-13
Обложка : Yes
Тип обложки : Cover (front)
MIME-тип обложки : image/jpeg
Engineer : Microsoft Dima
Аудио
Формат : MPEG Audio
Версия формата : Version 1
Профиль формата : Layer 3
Продолжительность : 44 м.
Вид битрейта : Постоянный
Битрейт : 192 Кбит/сек
Каналы : 2 канала
Частота : 44,1 КГц
Метод сжатия : С потерями
Размер потока : 61,2 Мбайт (100%)
Общее
Полное имя : E:\БУДУЩЕЕ\006.mp3
Формат : MPEG Audio
Размер файла : 60,3 Мбайт
Продолжительность : 43 м.
Режим общего битрейта : Постоянный
Общий поток : 192 Кбит/сек
Альбом/Исполнитель : Дмитрий Хазанович
Трек : Будущее
Исполнитель : Дмитрий Глуховский
Жанр : Аудиокнига
Дата записи : 2013-09-18
Обложка : Yes
Тип обложки : Cover (front)
MIME-тип обложки : image/jpeg
Engineer : Microsoft Dima
Аудио
Формат : MPEG Audio
Версия формата : Version 1
Профиль формата : Layer 3
Продолжительность : 43 м.
Вид битрейта : Постоянный
Битрейт : 192 Кбит/сек
Каналы : 2 канала
Частота : 44,1 КГц
Метод сжатия : С потерями
Размер потока : 60,1 Мбайт (100%)
Общее
Полное имя : E:\БУДУЩЕЕ\007.mp3
Формат : MPEG Audio
Размер файла : 61,7 Мбайт
Продолжительность : 44 м.
Режим общего битрейта : Постоянный
Общий поток : 192 Кбит/сек
Альбом/Исполнитель : Дмитрий Хазанович
Трек : Будущее
Исполнитель : Дмитрий Глуховский
Жанр : Аудиокнига
Дата записи : 2013-09-23
Обложка : Yes
Тип обложки : Cover (front)
MIME-тип обложки : image/jpeg
Engineer : Microsoft Dima
Аудио
Формат : MPEG Audio
Версия формата : Version 1
Профиль формата : Layer 3
Продолжительность : 44 м.
Вид битрейта : Постоянный
Битрейт : 192 Кбит/сек
Каналы : 2 канала
Частота : 44,1 КГц
Метод сжатия : С потерями
Размер потока : 61,5 Мбайт (100%)
Общее
Полное имя : E:\БУДУЩЕЕ\008.mp3
Формат : MPEG Audio
Размер файла : 63,7 Мбайт
Продолжительность : 46 м.
Режим общего битрейта : Постоянный
Общий поток : 192 Кбит/сек
Альбом/Исполнитель : Дмитрий Хазанович
Трек : Будущее
Исполнитель : Дмитрий Глуховский
Жанр : Аудиокнига
Дата записи : 2013-09-26
Обложка : Yes
Тип обложки : Cover (front)
MIME-тип обложки : image/jpeg
Engineer : Microsoft Dima
Аудио
Формат : MPEG Audio
Версия формата : Version 1
Профиль формата : Layer 3
Продолжительность : 46 м.
Вид битрейта : Постоянный
Битрейт : 192 Кбит/сек
Каналы : 2 канала
Частота : 44,1 КГц
Метод сжатия : С потерями
Размер потока : 63,6 Мбайт (100%)
Общее
Полное имя : E:\БУДУЩЕЕ\009.mp3
Формат : MPEG Audio
Размер файла : 53,0 Мбайт
Продолжительность : 38 м.
Режим общего битрейта : Постоянный
Общий поток : 192 Кбит/сек
Альбом/Исполнитель : Дмитрий Хазанович
Трек : Будущее
Исполнитель : Дмитрий Глуховский
Жанр : Аудиокнига
Дата записи : 2013-09-27
Обложка : Yes
Тип обложки : Cover (front)
MIME-тип обложки : image/jpeg
Engineer : Microsoft Dima
Аудио
Формат : MPEG Audio
Версия формата : Version 1
Профиль формата : Layer 3
Продолжительность : 38 м.
Вид битрейта : Постоянный
Битрейт : 192 Кбит/сек
Каналы : 2 канала
Частота : 44,1 КГц
Метод сжатия : С потерями
Размер потока : 52,9 Мбайт (100%)
Общее
Полное имя : E:\БУДУЩЕЕ\010.mp3
Формат : MPEG Audio
Размер файла : 56,7 Мбайт
Продолжительность : 41 м.
Режим общего битрейта : Постоянный
Общий поток : 192 Кбит/сек
Альбом/Исполнитель : Дмитрий Хазанович
Трек : Будущее
Исполнитель : Дмитрий Глуховский
Жанр : Аудиокнига
Дата записи : 2013-09-29
Обложка : Yes
Тип обложки : Cover (front)
MIME-тип обложки : image/jpeg
Engineer : Microsoft Dima
Аудио
Формат : MPEG Audio
Версия формата : Version 1
Профиль формата : Layer 3
Продолжительность : 41 м.
Вид битрейта : Постоянный
Битрейт : 192 Кбит/сек
Каналы : 2 канала
Частота : 44,1 КГц
Метод сжатия : С потерями
Размер потока : 56,6 Мбайт (100%)
Общее
Полное имя : E:\БУДУЩЕЕ\011.mp3
Формат : MPEG Audio
Размер файла : 80,8 Мбайт
Продолжительность : 58 м.
Режим общего битрейта : Постоянный
Общий поток : 192 Кбит/сек
Альбом/Исполнитель : Дмитрий Хазанович
Трек : Будущее
Исполнитель : Дмитрий Глуховский
Жанр : Аудиокнига
Дата записи : 2013-09-30
Обложка : Yes
Тип обложки : Cover (front)
MIME-тип обложки : image/jpeg
Engineer : Microsoft Dima
Аудио
Формат : MPEG Audio
Версия формата : Version 1
Профиль формата : Layer 3
Продолжительность : 58 м.
Вид битрейта : Постоянный
Битрейт : 192 Кбит/сек
Каналы : 2 канала
Частота : 44,1 КГц
Метод сжатия : С потерями
Размер потока : 80,6 Мбайт (100%)
Общее
Полное имя : E:\БУДУЩЕЕ\012.mp3
Формат : MPEG Audio
Размер файла : 61,8 Мбайт
Продолжительность : 44 м.
Режим общего битрейта : Постоянный
Общий поток : 192 Кбит/сек
Альбом/Исполнитель : Дмитрий Хазанович
Трек : Будущее
Исполнитель : Дмитрий Глуховский
Жанр : Аудиокнига
Дата записи : 2013-10-01
Обложка : Yes
Тип обложки : Cover (front)
MIME-тип обложки : image/jpeg
Engineer : Microsoft Dima
Аудио
Формат : MPEG Audio
Версия формата : Version 1
Профиль формата : Layer 3
Продолжительность : 44 м.
Вид битрейта : Постоянный
Битрейт : 192 Кбит/сек
Каналы : 2 канала
Частота : 44,1 КГц
Метод сжатия : С потерями
Размер потока : 61,6 Мбайт (100%)
Общее
Полное имя : E:\БУДУЩЕЕ\013.mp3
Формат : MPEG Audio
Размер файла : 58,6 Мбайт
Продолжительность : 42 м.
Режим общего битрейта : Постоянный
Общий поток : 192 Кбит/сек
Альбом/Исполнитель : Дмитрий Хазанович
Трек : Будущее
Исполнитель : Дмитрий Глуховский
Жанр : Аудиокнига
Дата записи : 2013-10-02
Обложка : Yes
Тип обложки : Cover (front)
MIME-тип обложки : image/jpeg
Engineer : Microsoft Dima
Аудио
Формат : MPEG Audio
Версия формата : Version 1
Профиль формата : Layer 3
Продолжительность : 42 м.
Вид битрейта : Постоянный
Битрейт : 192 Кбит/сек
Каналы : 2 канала
Частота : 44,1 КГц
Метод сжатия : С потерями
Размер потока : 58,5 Мбайт (100%)
Общее
Полное имя : E:\БУДУЩЕЕ\014.mp3
Формат : MPEG Audio
Размер файла : 81,1 Мбайт
Продолжительность : 58 м.
Режим общего битрейта : Постоянный
Общий поток : 192 Кбит/сек
Альбом/Исполнитель : Дмитрий Хазанович
Трек : Будущее
Исполнитель : Дмитрий Глуховский
Жанр : Аудиокнига
Дата записи : 2013-10-04
Обложка : Yes
Тип обложки : Cover (front)
MIME-тип обложки : image/jpeg
Engineer : Microsoft Dima
Аудио
Формат : MPEG Audio
Версия формата : Version 1
Профиль формата : Layer 3
Продолжительность : 59 м.
Вид битрейта : Постоянный
Битрейт : 192 Кбит/сек
Каналы : 2 канала
Частота : 44,1 КГц
Метод сжатия : С потерями
Размер потока : 80,9 Мбайт (100%)
Общее
Полное имя : E:\БУДУЩЕЕ\015.mp3
Формат : MPEG Audio
Размер файла : 84,1 Мбайт
Продолжительность : 1 ч. 1 м.
Режим общего битрейта : Постоянный
Общий поток : 192 Кбит/сек
Альбом/Исполнитель : Дмитрий Хазанович
Трек : Будущее
Исполнитель : Дмитрий Глуховский
Жанр : Аудиокнига
Дата записи : 2013-10-09
Обложка : Yes
Тип обложки : Cover (front)
MIME-тип обложки : image/jpeg
Engineer : Microsoft Dima
Аудио
Формат : MPEG Audio
Версия формата : Version 1
Профиль формата : Layer 3
Продолжительность : 1 ч. 1 м.
Вид битрейта : Постоянный
Битрейт : 192 Кбит/сек
Каналы : 2 канала
Частота : 44,1 КГц
Метод сжатия : С потерями
Размер потока : 84,0 Мбайт (100%)
Общее
Полное имя : E:\БУДУЩЕЕ\016.mp3
Формат : MPEG Audio
Размер файла : 63,8 Мбайт
Продолжительность : 46 м.
Режим общего битрейта : Постоянный
Общий поток : 192 Кбит/сек
Альбом/Исполнитель : Дмитрий Хазанович
Трек : Будущее
Исполнитель : Дмитрий Глуховский
Жанр : Аудиокнига
Дата записи : 2013-10-16
Обложка : Yes
Тип обложки : Cover (front)
MIME-тип обложки : image/jpeg
Engineer : Microsoft Dima
Аудио
Формат : MPEG Audio
Версия формата : Version 1
Профиль формата : Layer 3
Продолжительность : 46 м.
Вид битрейта : Постоянный
Битрейт : 192 Кбит/сек
Каналы : 2 канала
Частота : 44,1 КГц
Метод сжатия : С потерями
Размер потока : 63,6 Мбайт (100%)
Общее
Полное имя : E:\БУДУЩЕЕ\017.mp3
Формат : MPEG Audio
Размер файла : 38,8 Мбайт
Продолжительность : 28 м.
Режим общего битрейта : Постоянный
Общий поток : 192 Кбит/сек
Альбом/Исполнитель : Дмитрий Хазанович
Трек : Будущее
Исполнитель : Дмитрий Глуховский
Жанр : Аудиокнига
Дата записи : 2013-10-17
Обложка : Yes
Тип обложки : Cover (front)
MIME-тип обложки : image/jpeg
Engineer : Microsoft Dima
Аудио
Формат : MPEG Audio
Версия формата : Version 1
Профиль формата : Layer 3
Продолжительность : 28 м.
Вид битрейта : Постоянный
Битрейт : 192 Кбит/сек
Каналы : 2 канала
Частота : 44,1 КГц
Метод сжатия : С потерями
Размер потока : 38,7 Мбайт (100%)
Общее
Полное имя : E:\БУДУЩЕЕ\018.mp3
Формат : MPEG Audio
Размер файла : 78,0 Мбайт
Продолжительность : 56 м.
Режим общего битрейта : Постоянный
Общий поток : 192 Кбит/сек
Альбом/Исполнитель : Дмитрий Хазанович
Трек : Будущее
Исполнитель : Дмитрий Глуховский
Жанр : Аудиокнига
Дата записи : 2013-10-18
Обложка : Yes
Тип обложки : Cover (front)
MIME-тип обложки : image/jpeg
Engineer : Microsoft Dima
Аудио
Формат : MPEG Audio
Версия формата : Version 1
Профиль формата : Layer 3
Продолжительность : 56 м.
Вид битрейта : Постоянный
Битрейт : 192 Кбит/сек
Каналы : 2 канала
Частота : 44,1 КГц
Метод сжатия : С потерями
Размер потока : 77,8 Мбайт (100%)
Общее
Полное имя : E:\БУДУЩЕЕ\019.mp3
Формат : MPEG Audio
Размер файла : 37,3 Мбайт
Продолжительность : 27 м.
Режим общего битрейта : Постоянный
Общий поток : 192 Кбит/сек
Альбом/Исполнитель : Дмитрий Хазанович
Трек : Будущее
Исполнитель : Дмитрий Глуховский
Жанр : Аудиокнига
Дата записи : 2013-10-20
Обложка : Yes
Тип обложки : Cover (front)
MIME-тип обложки : image/jpeg
Engineer : Microsoft Dima
Аудио
Формат : MPEG Audio
Версия формата : Version 1
Профиль формата : Layer 3
Продолжительность : 27 м.
Вид битрейта : Постоянный
Битрейт : 192 Кбит/сек
Каналы : 2 канала
Частота : 44,1 КГц
Метод сжатия : С потерями
Размер потока : 37,1 Мбайт (100%)
Общее
Полное имя : E:\БУДУЩЕЕ\020.mp3
Формат : MPEG Audio
Размер файла : 58,1 Мбайт
Продолжительность : 42 м.
Режим общего битрейта : Постоянный
Общий поток : 192 Кбит/сек
Альбом/Исполнитель : Дмитрий Хазанович
Трек : Будущее
Исполнитель : Дмитрий Глуховский
Жанр : Аудиокнига
Дата записи : 2013-10-21
Обложка : Yes
Тип обложки : Cover (front)
MIME-тип обложки : image/jpeg
Engineer : Microsoft Dima
Аудио
Формат : MPEG Audio
Версия формата : Version 1
Профиль формата : Layer 3
Продолжительность : 42 м.
Вид битрейта : Постоянный
Битрейт : 192 Кбит/сек
Каналы : 2 канала
Частота : 44,1 КГц
Метод сжатия : С потерями
Размер потока : 57,9 Мбайт (100%)
Общее
Полное имя : E:\БУДУЩЕЕ\021.mp3
Формат : MPEG Audio
Размер файла : 73,3 Мбайт
Продолжительность : 53 м.
Режим общего битрейта : Постоянный
Общий поток : 192 Кбит/сек
Альбом/Исполнитель : Дмитрий Хазанович
Трек : Будущее
Исполнитель : Дмитрий Глуховский
Жанр : Аудиокнига
Дата записи : 2013-10-22
Обложка : Yes
Тип обложки : Cover (front)
MIME-тип обложки : image/jpeg
Engineer : Microsoft Dima
Аудио
Формат : MPEG Audio
Версия формата : Version 1
Профиль формата : Layer 3
Продолжительность : 53 м.
Вид битрейта : Постоянный
Битрейт : 192 Кбит/сек
Каналы : 2 канала
Частота : 44,1 КГц
Метод сжатия : С потерями
Размер потока : 73,2 Мбайт (100%)
Общее
Полное имя : E:\БУДУЩЕЕ\022.mp3
Формат : MPEG Audio
Размер файла : 71,6 Мбайт
Продолжительность : 51 м.
Режим общего битрейта : Постоянный
Общий поток : 192 Кбит/сек
Альбом/Исполнитель : Дмитрий Хазанович
Трек : Будущее
Исполнитель : Дмитрий Глуховский
Жанр : Аудиокнига
Дата записи : 2013-10-23
Обложка : Yes
Тип обложки : Cover (front)
MIME-тип обложки : image/jpeg
Engineer : Microsoft Dima
Аудио
Формат : MPEG Audio
Версия формата : Version 1
Профиль формата : Layer 3
Продолжительность : 52 м.
Вид битрейта : Постоянный
Битрейт : 192 Кбит/сек
Каналы : 2 канала
Частота : 44,1 КГц
Метод сжатия : С потерями
Размер потока : 71,4 Мбайт (100%)
Общее
Полное имя : E:\БУДУЩЕЕ\023.mp3
Формат : MPEG Audio
Размер файла : 60,0 Мбайт
Продолжительность : 43 м.
Режим общего битрейта : Постоянный
Общий поток : 192 Кбит/сек
Альбом/Исполнитель : Дмитрий Хазанович
Трек : Будущее
Исполнитель : Дмитрий Глуховский
Жанр : Аудиокнига
Дата записи : 2013-10-24
Обложка : Yes
Тип обложки : Cover (front)
MIME-тип обложки : image/jpeg
Engineer : Microsoft Dima
Аудио
Формат : MPEG Audio
Версия формата : Version 1
Профиль формата : Layer 3
Продолжительность : 43 м.
Вид битрейта : Постоянный
Битрейт : 192 Кбит/сек
Каналы : 2 канала
Частота : 44,1 КГц
Метод сжатия : С потерями
Размер потока : 59,9 Мбайт (100%)
Общее
Полное имя : E:\БУДУЩЕЕ\024.mp3
Формат : MPEG Audio
Размер файла : 54,0 Мбайт
Продолжительность : 39 м.
Режим общего битрейта : Постоянный
Общий поток : 192 Кбит/сек
Альбом/Исполнитель : Дмитрий Хазанович
Трек : Будущее
Исполнитель : Дмитрий Глуховский
Жанр : Аудиокнига
Дата записи : 2013-10-26
Обложка : Yes
Тип обложки : Cover (front)
MIME-тип обложки : image/jpeg
Engineer : Microsoft Dima
Аудио
Формат : MPEG Audio
Версия формата : Version 1
Профиль формата : Layer 3
Продолжительность : 39 м.
Вид битрейта : Постоянный
Битрейт : 192 Кбит/сек
Каналы : 2 канала
Частота : 44,1 КГц
Метод сжатия : С потерями
Размер потока : 53,9 Мбайт (100%)
Общее
Полное имя : E:\БУДУЩЕЕ\025.mp3
Формат : MPEG Audio
Размер файла : 57,4 Мбайт
Продолжительность : 41 м.
Режим общего битрейта : Постоянный
Общий поток : 192 Кбит/сек
Альбом/Исполнитель : Дмитрий Хазанович
Трек : Будущее
Исполнитель : Дмитрий Глуховский
Жанр : Аудиокнига
Дата записи : 2013-10-27
Обложка : Yes
Тип обложки : Cover (front)
MIME-тип обложки : image/jpeg
Engineer : Microsoft Dima
Аудио
Формат : MPEG Audio
Версия формата : Version 1
Профиль формата : Layer 3
Продолжительность : 41 м.
Вид битрейта : Постоянный
Битрейт : 192 Кбит/сек
Каналы : 2 канала
Частота : 44,1 КГц
Метод сжатия : С потерями
Размер потока : 57,2 Мбайт (100%)
Общее
Полное имя : E:\БУДУЩЕЕ\026.mp3
Формат : MPEG Audio
Размер файла : 55,7 Мбайт
Продолжительность : 40 м.
Режим общего битрейта : Постоянный
Общий поток : 192 Кбит/сек
Альбом/Исполнитель : Дмитрий Хазанович
Трек : Будущее
Исполнитель : Дмитрий Глуховский
Жанр : Аудиокнига
Дата записи : 2013-10-27
Обложка : Yes
Тип обложки : Cover (front)
MIME-тип обложки : image/jpeg
Engineer : Microsoft Dima
Аудио
Формат : MPEG Audio
Версия формата : Version 1
Профиль формата : Layer 3
Продолжительность : 40 м.
Вид битрейта : Постоянный
Битрейт : 192 Кбит/сек
Каналы : 2 канала
Частота : 44,1 КГц
Метод сжатия : С потерями
Размер потока : 55,6 Мбайт (100%)
Общее
Полное имя : E:\БУДУЩЕЕ\027.mp3
Формат : MPEG Audio
Размер файла : 66,2 Мбайт
Продолжительность : 48 м.
Режим общего битрейта : Постоянный
Общий поток : 192 Кбит/сек
Альбом/Исполнитель : Дмитрий Хазанович
Трек : Будущее
Исполнитель : Дмитрий Глуховский
Жанр : Аудиокнига
Дата записи : 2013-10-28
Обложка : Yes
Тип обложки : Cover (front)
MIME-тип обложки : image/jpeg
Engineer : Microsoft Dima
Аудио
Формат : MPEG Audio
Версия формата : Version 1
Профиль формата : Layer 3
Продолжительность : 48 м.
Вид битрейта : Постоянный
Битрейт : 192 Кбит/сек
Каналы : 2 канала
Частота : 44,1 КГц
Метод сжатия : С потерями
Размер потока : 66,0 Мбайт (100%)
Общее
Полное имя : E:\БУДУЩЕЕ\028.mp3
Формат : MPEG Audio
Размер файла : 66,3 Мбайт
Продолжительность : 48 м.
Режим общего битрейта : Постоянный
Общий поток : 192 Кбит/сек
Альбом/Исполнитель : Дмитрий Хазанович
Трек : Будущее
Исполнитель : Дмитрий Глуховский
Жанр : Аудиокнига
Дата записи : 2013-10-29
Обложка : Yes
Тип обложки : Cover (front)
MIME-тип обложки : image/jpeg
Engineer : Microsoft Dima
Аудио
Формат : MPEG Audio
Версия формата : Version 1
Профиль формата : Layer 3
Продолжительность : 48 м.
Вид битрейта : Постоянный
Битрейт : 192 Кбит/сек
Каналы : 2 канала
Частота : 44,1 КГц
Метод сжатия : С потерями
Размер потока : 66,1 Мбайт (100%)
Общее
Полное имя : E:\БУДУЩЕЕ\029.mp3
Формат : MPEG Audio
Размер файла : 63,9 Мбайт
Продолжительность : 46 м.
Режим общего битрейта : Постоянный
Общий поток : 192 Кбит/сек
Альбом/Исполнитель : Дмитрий Хазанович
Трек : Будущее
Исполнитель : Дмитрий Глуховский
Жанр : Аудиокнига
Дата записи : 2013-10-30
Обложка : Yes
Тип обложки : Cover (front)
MIME-тип обложки : image/jpeg
Engineer : Microsoft Dima
Аудио
Формат : MPEG Audio
Версия формата : Version 1
Профиль формата : Layer 3
Продолжительность : 46 м.
Вид битрейта : Постоянный
Битрейт : 192 Кбит/сек
Каналы : 2 канала
Частота : 44,1 КГц
Метод сжатия : С потерями
Размер потока : 63,7 Мбайт (100%)
Общее
Полное имя : E:\БУДУЩЕЕ\030.mp3
Формат : MPEG Audio
Размер файла : 105 Мбайт
Продолжительность : 1 ч. 16 м.
Режим общего битрейта : Постоянный
Общий поток : 192 Кбит/сек
Альбом/Исполнитель : Дмитрий Хазанович
Трек : Будущее
Исполнитель : Дмитрий Глуховский
Жанр : Аудиокнига
Дата записи : 2013-10-30
Обложка : Yes
Тип обложки : Cover (front)
MIME-тип обложки : image/jpeg
Engineer : Microsoft Dima
Аудио
Формат : MPEG Audio
Версия формата : Version 1
Профиль формата : Layer 3
Продолжительность : 1 ч. 16 м.
Вид битрейта : Постоянный
Битрейт : 192 Кбит/сек
Каналы : 2 канала
Частота : 44,1 КГц
Метод сжатия : С потерями
Размер потока : 105 Мбайт (100%)

Описание

На что ты готов ради вечной жизни? Уже при нашей жизни будут сделаны открытия, которые позволят людям оставаться вечно молодыми. Смерти больше нет. Наши дети не умрут никогда. Добро пожаловать в будущее. В мир, населенный вечно юными, совершенно здоровыми, счастливыми людьми. Но будут ли они такими же, как мы? Нужны ли дети, если за них придется пожертвовать бессмертием? Нужна ли семья тем, кто не может завести детей? Нужна ли душа людям, тело которых не стареет? Утопия «Будущее» — первый после пяти лет молчания роман Дмитрия Глуховского, автора культового романа «Метро 2033» и триллера «Сумерки». Книги писателя переведены на десятки иностранных языков, продаются миллионными тиражами и экранизируются в Голливуде. Но ни одна из них не захватит вас так, как «Будущее».
Яндекс.Метрика
Рейтинг@Mail.ru