Любовь от всех болезней / Суперхондрик / Supercondriaque (2014) DVDRip [FR / RU Sub]

 

Создавать темы 24-Авг-2014 09:29

-Любовь от всех болезней / Суперхондрик / Supercondriaque (2014) DVDRip [FR / RU Sub]- Год выпуска: 2014
Жанр: Комедия, Приключения, Драма
Описание фильма:
Роман Фобер — чудак и ипохондрик. Он никогда не был женат. Вся его жизнь сводится к тому, чтобы выискивать у себя симптомы страшных, на деле не существующих, болезней. Каждой находкой он стремится поделиться со своим единственным другом — доктором Димитрием Звенкой. Димитрий решает помочь Роману найти женщину и таким образом излечить его от постоянной ипохондрии, которая становится невыносимой.
Режиссер: Дэни Бун
Актеры: Дэни Бун, Кад Мерад, Алис Поль, Жан-Ив Бертело, Жюдит Эль Зейн, Марта Виллалонга, Валери Боннетон, Бруно Лоше, Жером Коммандёр, Джонатан Коэн и др.
Продолжительность: 01:43:09
Качество видео: DVDRip
Перевод: Отсутствует (субтитры)
Язык: Французский
Автор перевода: Denniel Palmer
Язык субтитров: Русский
Вид субтитров: Отдельным файлом
Дата мировой премьеры: 15.01.2014
Дата российской премьеры: 18.09.2014
Видеокодек: Xvid
Битрейт видео: 1536 kb/s
Размер кадра: 704 х 304
Аудио: AC3 5.1, 384 kb/s [Французский]
Сэмпл: Ссылка

Media info:

Формат: AVI
Формат/Информация: Audio Video Interleave
Размер файла: 1,39 Гбайт
Продолжительность: 1 ч. 43 м.
Общий поток: 1931 Кбит/сек
Видео
Идентификатор: 0
Формат: MPEG-4 Visual
Профиль формата: [email protected]
Параметр BVOP формата: Нет
Параметр QPel формата: Нет
Параметр GMC формата: Без точки перехода
Параметр матрицы формата: Default (H.263)
Идентификатор кодека: XVID
Идентификатор кодека/Подсказка: XviD
Продолжительность: 1 ч. 43 м.
Продолжительность оригинала: 1 ч. 43 м.
Битрейт: 1536 Кбит/сек
Ширина: 704 пикселя
Высота: 304 пикселя
Соотношение сторон: 2,35:1
Частота кадров: 25,000 кадров/сек
Цветовое пространство: YUV
Субдискретизация насыщенности: 4:2:0
Битовая глубина: 8 бит
Тип развёртки: Прогрессивная
Метод сжатия: С потерями
Бит/(Пиксели*Кадры): 0.287
Размер потока: 1,11 Гбайт (80%)
Библиотека кодирования: XviD 1.1.2 (UTC 2006-11-01)
Аудио
Идентификатор: 1
Формат: AC-3
Формат/Информация: Audio Coding 3
Расширение режима: CM (complete main)
Параметр Endianness формата: Big
Идентификатор кодека: 2000
Продолжительность: 1 ч. 43 м.
Вид битрейта: Постоянный
Битрейт: 384 Кбит/сек
Каналы: 6 каналов
Расположение каналов: Front: L C R, Side: L R, LFE
Частота: 48,0 КГц
Битовая глубина: 16 бит
Метод сжатия: С потерями
Размер потока: 283 Мбайт (20%)
Выравнивание: Соединение по промежуткам
Продолжительность промежутка: 32  мс. (0,80 видеокадр)
Время предзагрузки промежутка: 32  мс.

Скриншоты:

Яндекс.Метрика
Рейтинг@Mail.ru