Говорящая обезьяна ( Георгий Овчаренко)(1991,комедия) DVB

 

Создавать темы 02-Сен-2014 16:36

-Говорящая обезьяна- Год выпуска: 1991
Страны: СССР , Испания
Жанры: комедия
Продолжительность: 01:17:33
Режиссер: Георгий Овчаренко
Сценарий: Георгий Овчаренко
Оператор: Всеволод Симаков
Композитор : Эдуард Богушевский
Художник: Владимир Савостьянов
Монтаж: Тамара Зубова
Актеры: Армен Джигарханян , Борис Новиков , Валерий Золотухин , Виктор Ильичев , Михаил Кокшенов , Людмила Нильская , Татьяна Догилева , Наталья Крачковская

Описание: В новые перестроечные времена некоторые люди стали открыто жить лучше других и, демонстрируя превосходство и следуя заграничной моде, заинтересовались экзотическими видами животных. Почему бы не завести на даче крокодила или льва — на зависть окружающим?«Шеф» небольшой частной «фирмы» получил заказ на медведя для ресторана и крокодила, а больше всего его заинтересовала говорящая обезьяна Ной, которая принадлежала главному ветеринарному врачу города Ивану Мишуткину. Главврач надеялся получить докторскую степень за диссертацию на тему «Диалог человека и животного», и говорящая обезьяна была не только «меньшим братом», но и главным экспонатом и научным фактом общения человека и человекообразного. Злоумышленники из «фирмы» выкрали крокодила вместе с его владельцем и Ноя.Пока гениальный представитель человекообразных общался с далеко не лучшими представителями «царей природы», он утратил все приобретенные человеческие черты и поведения и разучился разговаривать. С кем поведешься, как говорится… Похитители были арестованы, и Ной вернулся к доктору Мишуткину. Но защита диссертации провалилась, а появление по-настоящему говорящей обезьяны вновь стало делом далекого будущего.

Формат: MPEG-PS
Видео кодек: MPEG-2 Video
Аудио кодек: MPEG-1 Audio layer 2
Видео: 704x576 (4:3), 25.000 fps, MPEG-2 Video, 5 771 Kbps
Аудио: MPEG-1 Audio layer 2, 192 Kbps, 48.0 KHz, 2 ch

МедиаИнфо

General
Complete name                    : Говорящая обезьяна.mpg
Format                           : MPEG-PS
File size                        : 3.30 GiB
Duration                         : 1h 17mn
Overall bit rate                 : 6 084 Kbps
Video
ID                               : 224 (0xE0)
Format                           : MPEG Video
Format version                   : Version 2
Format profile                   : [email protected]
Format settings, BVOP            : Yes
Format settings, Matrix          : Default
Format settings, GOP             : M=3, N=12
Duration                         : 1h 17mn
Bit rate mode                    : Variable
Bit rate                         : 5 771 Kbps
Nominal bit rate                 : 15.0 Mbps
Width                            : 704 pixels
Height                           : 576 pixels
Display aspect ratio             : 4:3
Frame rate                       : 25.000 fps
Standard                         : PAL
Color space                      : YUV
Chroma subsampling               : 4:2:0
Bit depth                        : 8 bits
Scan type                        : Interlaced
Scan order                       : Top Field First
Bits/(Pixel*Frame)               : 0.569
Stream size                      : 3.13 GiB (95%)
Audio
ID                               : 192 (0xC0)
Format                           : MPEG Audio
Format version                   : Version 1
Format profile                   : Layer 2
Duration                         : 1h 17mn
Bit rate mode                    : Constant
Bit rate                         : 192 Kbps
Channel(s)                       : 2 channels
Sampling rate                    : 48.0 KHz
Stream size                      : 107 MiB (3%)
Скриншоты:
Яндекс.Метрика
Рейтинг@Mail.ru