Фобия / Phobia (Джон Кейес) [2013, триллер, ужасы, WEB-DLRip] от BitTracker

 

Создавать темы 11-Ноя-2013 07:07

Информация о фильме
Название: Фобия
Оригинальное название: Phobia
Год выхода : 2013
Жанр: триллер, ужасы
Режиссер: Джон Кейес / Jon Keeyes
В ролях: Эрика Лирсен, Чейз Райан Джеффри, Мэттью Томпкинс, Джонатан Брукс, Мэтт Мур, Стефани Родс, Кэролин Уикуайр, Тиффани Лонсдэйл, Трей Валпоул
О фильме:
Героиня этого фильма – известный психотерапевт, специализирующаяся на лечении пациентов, страдающих различными фобиями. Однажды к ней на лечение поступает человек, твёрдо убежденный в своей вампирской сущности. Все попытки помочь ему справиться с этой психической болезнью ни к чему не приводят, к тому же, общаясь с пациентом, героиня начинает понимать, что тот замешан в какой-то таинственной истории, связанной с убийством...

Страна: США
Продолжительность: 01:30:40
Перевод: Любительское (двухголосое) [DeadSno & den904]
Файл
Кодек: XviD
Качество: WEB-DLRip (Исх. WEB-DL 1080p)
Видео: 656x368 (1.78:1), 23.976 fps, XviD build 50 ~1011 kbps avg, 0.17 bit/pixel
Звук: 48 kHz, MPEG Layer 3, 2 ch, ~128.00 kbps avg
Субтитры: нет
Семпл

MediaInfo

Общее
Полное имя : S:ФильмыФобия. 2013. WEB-DLRip. 745 (AleksSin).avi
Формат : AVI
Формат/Информация : Audio Video Interleave
Размер файла : 745 Мбайт
Продолжительность : 1 ч. 30 м.
Общий поток : 1148 Кбит/сек
Программа кодирования : VirtualDubMod 1.5.10.3 | www.virtualdub-fr.org || (build 2550/release)
Библиотека кодирования : VirtualDubMod build 2550/release
Видео
Идентификатор : 0
Формат : MPEG-4 Visual
Профиль формата : Advanced [email protected]
Параметр BVOP формата : 2
Параметр QPel формата : Нет
Параметр GMC формата : Без точки перехода
Параметр матрицы формата : Default (H.263)
Идентификатор кодека : XVID
Идентификатор кодека/Подсказка : XviD
Продолжительность : 1 ч. 30 м.
Битрейт : 1011 Кбит/сек
Ширина : 656 пикс.
Высота : 368 пикс.
Соотношение сторон : 16:9
Частота кадров : 23,976 кадр/сек
Цветовое пространство : YUV
Подвыборка цветности : 4:2:0
Битовая глубина : 8 бит
Тип развёртки : Прогрессивная
Метод сжатия : С потерями
Бит/(Пиксели*Кадры) : 0.175
Размер потока : 656 Мбайт (88%)
Библиотека кодирования : XviD 1.2.1 (UTC 2008-12-04)
Аудио
Идентификатор : 1
Формат : MPEG Audio
Версия формата : Version 1
Профиль формата : Layer 3
Идентификатор кодека : 55
Идентификатор кодека/Подсказка : MP3
Продолжительность : 1 ч. 30 м.
Вид битрейта : Постоянный
Битрейт : 128 Кбит/сек
Каналы : 2 канала
Частота : 48,0 КГц
Метод сжатия : С потерями
Размер потока : 83,0 Мбайт (11%)
Выравнивание : Соединение по промежуткам
Продолжительность промежутка : 42 мс. (1,00 видеокадр)
Время предзагрузки промежутка : 504 ms
Библиотека кодирования : LAME3.99r
Настройки программы : -m s -V 4 -q 2 -lowpass 17 -b 128

Скриншоты


_________________
Подпись отключена за нарушение правил форума

Создавать темы 26-Янв-2016 23:28 (спустя 2 года 2 месяца)

Топик был перенесен из форума Зарубежные Новинки (HD*Rip/LQ, DVDRip) в форум Зарубежные Фильмы (HD*Rip/LQ, DVDRip, SATRip, VHSRip)
T_O_M
Яндекс.Метрика
Рейтинг@Mail.ru