Рука-убийца / Idle Hands/Режиссер:Родмен Флендер/ Жанр:Ужасы, триллер, комедия/(1999) BDRip 720p от MediaClub | D

 

Создавать темы 11-Ноя-2013 15:44

Информация о фильме
Название: Рука-убийца
Оригинальное название: Idle Hands
Год выпуска: 1999
Жанр: Ужасы, триллер, комедия
Режиссер: Родмен Флендер
В ролях: Девон Сава, Сет Грин, Элден Хенсон, Джессика Альба, Вивика А. Фокс, Кристофер Харт, Джек Ноузуорти, Кэти Райт, Шон Уэйлен, Николас Сэдлер, Фред Уиллард, Конни Рэй, Стив Ван Уормер, Келли Монако, Тимоти Стэк, Джои Слотник, Сабрина Лу, Кайл Гэсс, Минди Стерлинг, Донна В. Скотт, Рэнди Оглсби, Молли Мэслин, Карл Гэбриел Йорк, Декстер Холланд, Томас ДеЛонге
Описание: Как-то утром самый ленивый подросток в Америке обнаруживает трупы родителей с оторванными головами и замечает, что его рука стала подозрительно самостоятельной! Оказывается, в него вселились древние силы зла…

Страна: США
Студия: Columbia Pictures Corporation, Licht/Mueller Film Corporation, Team Todd, TriStar Pictures
Продолжительность: 01:32:04
Перевод: Дублированный
Файл
Качество: BDRip 720p
Видео: MPEG-4 AVC, 5000 Кбит/с, 1280x694, 23.976 кадр/с
Аудио #1: Русский (AC3, 6 ch, 384 Кбит/с) / Дублированный
Аудио #2: Английский (AC3, 6 ch, 448 Кбит/с)
Субтитры: Русские, английские
Семпл

Скриншоты

О релизе

За постер спасибо: Media-Art-Club

MI

Общее
Уникальный идентификатор : 175301914685869842054439544393656386421 (0x83E1EBB1B27869FABC3DA4A66D3F4375)
Полное имя : D:Mои раздачиRuka-ubyica.1999.BDRip.(720p)-MediaClub.mkv
Формат : Matroska
Версия формата : Version 4 / Version 2
Размер файла : 3,75 Гбайт
Продолжительность : 1 ч. 32 м.
Общий поток : 5829 Кбит/сек
Название фильма : -=MediaClub-kaspr=-
Дата кодирования : UTC 2013-11-11 11:33:48
Программа кодирования : mkvmerge v6.1.0 ('Old Devil') built on Mar 4 2013 09:10:42
Библиотека кодирования : libebml v1.3.0 + libmatroska v1.4.0
Видео
Идентификатор : 1
Формат : AVC
Формат/Информация : Advanced Video Codec
Профиль формата : [email protected]
Параметр CABAC формата : Да
Параметр ReFrames формата : 8 кадров
Идентификатор кодека : V_MPEG4/ISO/AVC
Продолжительность : 1 ч. 32 м.
Битрейт : 5000 Кбит/сек
Ширина : 1280 пикселей
Высота : 694 пикселя
Соотношение сторон : 1,85:1
Режим частоты кадров : Постоянный
Частота кадров : 23,976 кадра/сек
Цветовое пространство : YUV
Субдискретизация насыщенности : 4:2:0
Битовая глубина : 8 бит
Тип развёртки : Прогрессивная
Бит/(Пиксели*Кадры) : 0.235
Размер потока : 3,14 Гбайт (84%)
Заголовок : -=MediaClub-kaspr=-
Библиотека кодирования : x264 core 130 r2273 b3065e6
Настройки программы : cabac=1 / ref=8 / deblock=1:-3:-3 / analyse=0x3:0x133 / me=umh / subme=11 / psy=1 / psy_rd=1.00:0.20 / mixed_ref=1 / me_range=48 / chroma_me=1 / trellis=2 / 8x8dct=1 / cqm=0 / deadzone=21,11 / fast_pskip=0 / chroma_qp_offset=-3 / threads=12 / lookahead_threads=2 / sliced_threads=0 / nr=0 / decimate=0 / interlaced=0 / bluray_compat=0 / constrained_intra=0 / bframes=9 / b_pyramid=2 / b_adapt=2 / b_bias=0 / direct=3 / weightb=1 / open_gop=0 / weightp=2 / keyint=240 / keyint_min=23 / scenecut=40 / intra_refresh=0 / rc=2pass / mbtree=0 / bitrate=5000 / ratetol=1.0 / qcomp=0.60 / qpmin=0 / qpmax=69 / qpstep=4 / cplxblur=20.0 / qblur=0.5 / ip_ratio=1.40 / pb_ratio=1.30 / aq=1:1.00
Default : Да
Forced : Да
Аудио #1
Идентификатор : 2
Формат : AC-3
Формат/Информация : Audio Coding 3
Расширение режима : CM (complete main)
Параметр Endianness формата : Big
Идентификатор кодека : A_AC3
Продолжительность : 1 ч. 32 м.
Вид битрейта : Постоянный
Битрейт : 384 Кбит/сек
Каналы : 6 каналов
Расположение каналов : Front: L C R, Side: L R, LFE
Частота : 48,0 КГц
Битовая глубина : 16 бит
Метод сжатия : С потерями
Размер потока : 253 Мбайт (7%)
Заголовок : Dub
Язык : Russian
Default : Да
Forced : Да
Аудио #2
Идентификатор : 3
Формат : AC-3
Формат/Информация : Audio Coding 3
Расширение режима : CM (complete main)
Параметр Endianness формата : Big
Идентификатор кодека : A_AC3
Продолжительность : 1 ч. 32 м.
Вид битрейта : Постоянный
Битрейт : 448 Кбит/сек
Каналы : 6 каналов
Расположение каналов : Front: L C R, Side: L R, LFE
Частота : 48,0 КГц
Битовая глубина : 16 бит
Метод сжатия : С потерями
Размер потока : 295 Мбайт (8%)
Язык : English
Default : Нет
Forced : Нет
Текст #1
Идентификатор : 4
Формат : UTF-8
Идентификатор кодека : S_TEXT/UTF8
Идентификатор кодека/Информация : UTF-8 Plain Text
Язык : Russian
Default : Нет
Forced : Нет
Текст #2
Идентификатор : 5
Формат : UTF-8
Идентификатор кодека : S_TEXT/UTF8
Идентификатор кодека/Информация : UTF-8 Plain Text
Язык : English
Default : Нет
Forced : Нет
Меню
00:00:00.000 : en:Chapter 01
00:08:23.127 : en:Chapter 02
00:10:03.602 : en:Chapter 03
00:15:27.468 : en:Chapter 04
00:22:23.216 : en:Chapter 05
00:27:08.126 : en:Chapter 06
00:34:44.582 : en:Chapter 07
00:38:31.892 : en:Chapter 08
00:41:58.724 : en:Chapter 09
00:44:42.680 : en:Chapter 10
00:52:19.427 : en:Chapter 11
01:02:12.562 : en:Chapter 12
01:08:39.698 : en:Chapter 13
01:14:34.678 : en:Chapter 14
01:19:28.305 : en:Chapter 15
01:22:25.523 : en:Chapter 16
Яндекс.Метрика
Рейтинг@Mail.ru