[ Сегодня на трекере фрилич! Идет свободное скачивание без начисления Download ]

Иов Многострадальный (2005) DVD5

 

Создавать темы 17-Окт-2014 15:17

-Иов Многострадальный - Режиссер : А. Малечкин, С. Линников
Год выпуска: 2005
Жанр: Документальный
Описание:
Фильм знакомит зрителя с подвижничеством первого патриарха русской церкви Иова. Его имя, несправедливо забытое, стоит в ряду с именами Александра Невского и Димитрия Донского, Минина и Пожарского.

Доп. материалы:

- Слово Святейшего Патриарха Московского и всея Руси Алексея II
- Служба в Успенском соборе Старицкого Свято-Успенского монастыря
- Восстановление Старицкого Свято-Успенского монастыря
- Соборы Коломны
- Художник-иконописец Алексей Карасев
- Старицкий Свято-Успенский монастырь и окрестности
Продолжительность: 00:39:34
Качество видео: DVD5
Видеокодек: MPEG 2, PAL
Битрейт видео: ~7081 Кбит/сек
Размер кадра: 720/576
Аудиокодек: AC3 2.0
Битрейт аудио: 192 Кбит/сек, 48.0 КГц

M.I.

Общее
Полное имя : F:\Иов Многострадальный\видео\VTS_03_1.VOB
Формат : MPEG-PS
Размер файла : 1024 Мбайт
Продолжительность : 19 м.
Общий поток : 7420 Кбит/сек
Видео
Идентификатор : 224 (0xE0)
Формат : MPEG Video
Версия формата : Version 2
Профиль формата : [email protected]
Параметр BVOP формата : Да
Параметр матрицы формата : По умолчанию
Продолжительность : 19 м.
Вид битрейта : Переменный
Битрейт : 7081 Кбит/сек
Номинальный битрейт : 8500 Кбит/сек
Ширина : 720 пикс.
Высота : 576 пикс.
Соотношение сторон : 4:3
Частота кадров : 25,000 кадр/сек
Стандарт вещания : PAL
Цветовое пространство : YUV
Подвыборка цветности : 4:2:0
Битовая глубина : 8 бит
Тип развёртки : Чересстрочная
Порядок развёртки : Верхнее поле первое
Метод сжатия : С потерями
Бит/(Пиксели*Кадры) : 0.683
Размер потока : 977 Мбайт (95%)
Аудио
Идентификатор : 189 (0xBD)-128 (0x80)
Формат : AC-3
Формат/Информация : Audio Coding 3
Расширение режима : CM (complete main)
Режим смешивания : DVD-Video
Продолжительность : 19 м.
Вид битрейта : Постоянный
Битрейт : 192 Кбит/сек
Каналы : 2 канала
Расположение каналов : Front: L R
Частота : 48,0 КГц
Битовая глубина : 16 бит
Метод сжатия : С потерями
Задержка видео : -80 мс.
Размер потока : 26,5 Мбайт (3%)
Скриншоты:
-Время раздачи: с 10:00 до 20:00
Яндекс.Метрика
Рейтинг@Mail.ru