Искажение / Reverb (2007) /Режиссер:Эйтан Аррузи/Жанр:Ужасы/WEB-DL 720p от CINEMANIA | P

 

Создавать темы 12-Ноя-2013 18:04

Информация о фильме
Название: Искажение
Оригинальное название: Reverb
Год выпуска: 2007
Жанр: Ужасы
Режиссер: Эйтан Аррузи
В ролях: Лео Грегори, Ева Бертистл, Памела Бэнкс, Марго Стилли, Люк де Вулфсон, Стефен Лорд, Джон Гиллеспи, Адам Ланнон, Стивен Лорд
О фильме:
Молодой музыкант договаривается со своим приятелем бесплатно поработать в студии звукозаписи ночью. Он должен записать трек, который несомненно станет хитом. На запись он берет свою подружку певицу. Но во время записи что-то начинает идти не так. Появляются посторонние шумы, обрывки музыки, голоса, бесконечно звонит телефон. Музыкант находит в Интернете информацию, что в этой студии рок звезда Марк Гриффин записывал свой последний альбом и в поиске идеального звучания убил всех своих музыкантов а потом и себя. Теперь его дух начинает терроризировать героев. Выхода из студии нет и они начинают борьбу за выживание…

Выпущено: Великобритания
Продолжительность: 01:28:33
Озвучивание: Профессиональное (многоголосое)
Файл
Формат: MKV
Качество: WEB-DL 720p [CINEMANIA]
Видео: 3564 kb/s, 1280x720
Аудио: Russian: AC3, 192 kb/s (2 ch) / English: AC3, 448 kb/s (6 ch)
Субтитры: English
Дополнительно: Сохранены оригинальные чаптеры как на Blu-Ray
Размер: 2.61 GB
Скачать: Сэмпл

NFO

General
Reverb.2007.WEB-DL.720p.CINEMANIA.mkv
Format : Matroska
Format version : Version 4 / Version 2
File size : 2.61 GiB
Duration : 1h 28mn
Overall bit rate : 4 224 Kbps
Movie name : CINEMANIA.CC
Encoded date : UTC 2013-11-11 21:48:07
Writing application : mkvmerge v6.5.0 ('Isn't she lovely') built on Oct 20 2013 12:50:05
Writing library : libebml v1.3.0 + libmatroska v1.4.1
Video
ID : 1
Format : AVC
Format/Info : Advanced Video Codec
Format profile : [email protected]
Format settings, CABAC : No
Format settings, ReFrames : 2 frames
Codec ID : V_MPEG4/ISO/AVC
Duration : 1h 28mn
Bit rate : 3 564 Kbps
Width : 1 280 pixels
Height : 720 pixels
Display aspect ratio : 16:9
Frame rate mode : Constant
Frame rate : 23.976 fps
Color space : YUV
Chroma subsampling : 4:2:0
Bit depth : 8 bits
Scan type : Progressive
Bits/(Pixel*Frame) : 0.161
Stream size : 2.21 GiB (84%)
Title : CINEMANIA.CC
Language : English
Default : Yes
Forced : No
Color primaries : BT.709
Transfer characteristics : BT.709
Matrix coefficients : BT.709
Audio #1
ID : 2
Format : AC-3
Format/Info : Audio Coding 3
Mode extension : CM (complete main)
Format settings, Endianness : Big
Codec ID : A_AC3
Duration : 1h 28mn
Bit rate mode : Constant
Bit rate : 192 Kbps
Channel(s) : 2 channels
Channel positions : Front: L R
Sampling rate : 48.0 KHz
Bit depth : 16 bits
Compression mode : Lossy
Stream size : 122 MiB (5%)
Title : Лицензия
Language : Russian
Default : Yes
Forced : Yes
Audio #2
ID : 3
Format : AC-3
Format/Info : Audio Coding 3
Mode extension : CM (complete main)
Format settings, Endianness : Big
Codec ID : A_AC3
Duration : 1h 28mn
Bit rate mode : Constant
Bit rate : 384 Kbps
Channel(s) : 6 channels
Channel positions : Front: L C R, Side: L R, LFE
Sampling rate : 48.0 KHz
Bit depth : 16 bits
Compression mode : Lossy
Stream size : 243 MiB (9%)
Language : English
Default : No
Forced : No
Text
ID : 4
Format : UTF-8
Codec ID : S_TEXT/UTF8
Codec ID/Info : UTF-8 Plain Text
Language : English
Default : No
Forced : No
Menu
00:00:00.000 : en:1
00:10:47.000 : en:2
00:19:58.000 : en:3
00:29:49.000 : en:4
00:41:20.000 : en:5
00:51:11.000 : en:6
01:01:41.000 : en:7
01:10:30.000 : en:8
01:19:32.000 : en:9
01:24:37.000 : en:10
Яндекс.Метрика
Рейтинг@Mail.ru