Танцы. Выпуск 11 (2014.11.01) SATRip

 

Создавать темы 01-Ноя-2014 17:47

- Танцы. Выпуск 11 (2014.11.01) SATRip - Режиссер / Телекомпания: ТНТ
Русское название: Танцы
Оригинальное название:
Год выпуска: 2014
Жанр: ТВ-Шоу
Выпущено: Россия
Описание:
«Танцы» - это яркий необычный сплав реалити-шоу и шоу талантов. В проекте примут участие 282 участника из 77 городов страны. На кону звание лучшего танцора России
Грандиозное шоу, участники которого будут бороться за звание лучшего танцора страны и главный приз - 3 000 000 рублей. Жюри, они же наставники конкурсантов - лучшие российские хореографы Егор Дружинин и Мигель.
Наставники: Егор Дружинин и Мигель
Ведущий: Ляйсан Утяшева
Продолжительность: 01:35:34
Видеокодек: Xvid
Битрейт видео: ~1800 Кбит/сек
Размер кадра: 720 x 400
Качество видео: SATRip
Аудиокодек: MP3, 2ch.
Битрейт аудио: 128 Кбит/сек

MediaInfo:

Формат : AVI
Формат/Информация : Audio Video Interleave
Размер файла : 1,29 Гбайт
Продолжительность : 1 ч. 35 м.
Общий поток : 1937 Кбит/сек
Библиотека кодирования : VirtualDub build 32817/release
Видео
Идентификатор : 0
Формат : MPEG-4 Visual
Профиль формата : Advanced [email protected]
Параметр BVOP формата : 2
Параметр QPel формата : Нет
Параметр GMC формата : Без точки перехода
Параметр матрицы формата : Default (MPEG)
Идентификатор кодека : XVID
Идентификатор кодека/Подсказка : XviD
Продолжительность : 1 ч. 35 м.
Битрейт : 1800 Кбит/сек
Ширина : 720 пикселей
Высота : 400 пикселей
Соотношение сторон : 16:9
Частота кадров : 25,000 кадров/сек
Цветовое пространство : YUV
Субдискретизация насыщенности : 4:2:0
Битовая глубина : 8 бит
Тип развёртки : Прогрессивная
Метод сжатия : С потерями
Бит/(Пиксели*Кадры) : 0.250
Размер потока : 1,20 Гбайт (93%)
Библиотека кодирования : XviD 1.2.1 (UTC 2008-12-04)
Аудио
Идентификатор : 1
Формат : MPEG Audio
Версия формата : Version 1
Профиль формата : Layer 3
Режим : Joint stereo
Расширение режима : MS Stereo
Идентификатор кодека : 55
Идентификатор кодека/Подсказка : MP3
Продолжительность : 1 ч. 35 м.
Вид битрейта : Постоянный
Битрейт : 128 Кбит/сек
Каналы : 2 канала
Частота : 48,0 КГц
Метод сжатия : С потерями
Размер потока : 87,5 Мбайт (7%)
Выравнивание : Разделение по промежуткам
Продолжительность промежутка : 40 мс. (1,00 видеокадр)
Время предзагрузки промежутка : 500 мс.
Скриншоты:-Время раздачи: 24/7. До первых 5 скачавших.-Rip by Ponomarev1997-
Яндекс.Метрика
Рейтинг@Mail.ru