Владимир Ждамиров - За забором весна (2014) [FLAC (image+.cue)|Lossless]<Шансон>

 

Создавать темы 12-Дек-2014 19:44

-Владимир Ждамиров - За забором весна (2014)- Год: 2014
Страна: Россия
Лейбл: Artur-Music - CD589
Жанр: Шансон
Продолжительность: 00:58:10
Кодек: FLAC
Тип рипа: image+.cue
Битрейт: Lossless
Треклист:
01. За забором весна
02. Четыре года
03. Журавли над тайгой
04. Всюду бог
05. Тюрьма - не воля
06. Академия
07. Любимая
08. Скажи, зачем
09. Небеса пацанам
10. Мама, прости...
11. Душевный привет
12. Этап
13. Где же воля

Дополнительная информация&#58;

Вышел первый сольный альбом Владимира Ждамирова "За забором весна". В альбом вошли 13 совершенно новых оригинальных композиций. Слушателей ждёт немало приятных сюрпризов, т.к. жанровые рамки будут несколько раздвинуты. На диске вы услышите не только забойные танцевальные хиты на блатную тематику, но также и лирические песни о чувствах, романс, балладу, дуэт и немного рока. По словам самого исполнителя, который является автором музыки ко всем композициям, а также принимает непосредственное участие в аранжировках,- в звучании новых песен сохранится прежняя узнаваемая окраска, так полюбившаяся слушателям на ранних альбомах группы Бутырка, но и добавится несколько новых интересных оттенков, которые, безусловно, придутся по душе поклонникам шансона. В работе над альбомом задействована целая команда сподвижников Владимира: это и музыканты-профессионалы, и несколько как известных, так и молодых талантливых аранжировщиков, тесно взаимодействующих между собой.
Владимир Ждамиров и его коллектив от души благодарят всех своих настоящих поклонников за веру, терпение и слова поддержки и желают всем счастья, добра, фарту и отличного настроения!

Cue - файл&#58;

REM GENRE Chanson
REM DATE 2014
REM DISCID 9B0DA10D
REM COMMENT "ExactAudioCopy v1.0b3"
PERFORMER "Владимир Ждамиров"
TITLE "ЗА ЗАБОРОМ ВЕСНА"
FILE "Владимир Ждамиров - За забором весна.flac" WAVE
  TRACK 01 AUDIO
    TITLE "За забором весна"
    PERFORMER "Владимир Ждамиров"
    INDEX 01 00:00:00
  TRACK 02 AUDIO
    TITLE "Четыре года"
    PERFORMER "Владимир Ждамиров"
    INDEX 01 04:40:19
  TRACK 03 AUDIO
    TITLE "Журавли над тайгой"
    PERFORMER "Владимир Ждамиров"
    INDEX 01 07:47:29
  TRACK 04 AUDIO
    TITLE "Всюду бог"
    PERFORMER "Владимир Ждамиров"
    INDEX 01 12:24:44
  TRACK 05 AUDIO
    TITLE "Тюрьма - не воля"
    PERFORMER "Владимир Ждамиров"
    INDEX 01 18:34:71
  TRACK 06 AUDIO
    TITLE "Академия"
    PERFORMER "Владимир Ждамиров"
    INDEX 01 23:08:55
  TRACK 07 AUDIO
    TITLE "Любимая"
    PERFORMER "Владимир Ждамиров"
    INDEX 01 26:20:45
  TRACK 08 AUDIO
    TITLE "Скажи, зачем"
    PERFORMER "Владимир Ждамиров"
    INDEX 01 31:41:10
  TRACK 09 AUDIO
    TITLE "Небеса пацанам"
    PERFORMER "Владимир Ждамиров"
    INDEX 01 36:40:32
  TRACK 10 AUDIO
    TITLE "Мама, прости..."
    PERFORMER "Владимир Ждамиров"
    INDEX 01 40:19:27
  TRACK 11 AUDIO
    TITLE "Душевный привет"
    PERFORMER "Владимир Ждамиров"
    INDEX 01 44:39:23
  TRACK 12 AUDIO
    TITLE "Этап"
    PERFORMER "Владимир Ждамиров"
    INDEX 01 50:11:64
  TRACK 13 AUDIO
    TITLE "Где же воля"
    PERFORMER "Владимир Ждамиров"
    INDEX 01 54:04:03

Отчёт ЕАС&#58;

Exact Audio Copy V1.0 beta 3 from 29. August 2011
Отчёт EAC об извлечении, выполненном 29. ноября 2014, 15:20
В.ЖДАМИРОВ / ЗА ЗАБОРОМ ВЕСНА
Дисковод: hp      DVDRAM GT80N   Adapter: 0  ID: 0
Режим чтения                 : Достоверность
Использование точного потока : Да
Отключение кэша аудио        : Да
Использование указателей C2  : Нет
Коррекция смещения при чтении                     : 102
Способность читать области Lead-in и Lead-out     : Нет
Заполнение пропущенных сэмплов тишиной            : Да
Удаление блоков с тишиной в начале и конце        : Нет
При вычислениях CRC использовались нулевые сэмплы : Да
Интерфейс                                         : Встроенный Win32-интерфейс для Win NT/2000
Выходной формат          : Пользовательский кодировщик
Выбранный битрейт        : 768 kBit/s
Качество                 : Высокий
Добавление ID3-тега      : Нет
Утилита сжатия           : C:\Program Files (x86)\Exact Audio Copy\FLAC\FLAC.EXE
Дополнительные параметры : -6 -V -T "ARTIST=%artist%" -T "TITLE=%title%" -T "ALBUM=%albumtitle%" -T "DATE=%year%" -T "TRACKNUMBER=%tracknr%" -T "GENRE=%genre%" -T "COMMENT=%comment%" -T "BAND=%albuminterpret%" -T "ALBUMARTIST=%albuminterpret%" -T "COMPOSER=%composer%" %haslyrics%--tag-from-file=LYRICS="%lyricsfile%"%haslyrics% -T "DISCNUMBER=%cdnumber%" -T "TOTALDISCS=%totalcds%" -T "TOTALTRACKS=%numtracks%" %hascover%--picture="%coverfile%"%hascover% %source% -o %dest%
TOC извлечённого CD
     Трек |   Старт  | Длительность | Начальный сектор | Конечный сектор
    ---------------------------------------------------------------------
       1  |  0:00.00 |    4:40.19   |           0      |      21018
       2  |  4:40.19 |    3:07.10   |       21019      |      35053
       3  |  7:47.29 |    4:37.15   |       35054      |      55843
       4  | 12:24.44 |    6:10.27   |       55844      |      83620
       5  | 18:34.71 |    4:33.59   |       83621      |     104154
       6  | 23:08.55 |    3:11.65   |      104155      |     118544
       7  | 26:20.45 |    5:20.40   |      118545      |     142584
       8  | 31:41.10 |    4:59.22   |      142585      |     165031
       9  | 36:40.32 |    3:38.70   |      165032      |     181451
      10  | 40:19.27 |    4:19.71   |      181452      |     200947
      11  | 44:39.23 |    5:32.41   |      200948      |     225888
      12  | 50:11.64 |    3:52.14   |      225889      |     243302
      13  | 54:04.03 |    4:05.68   |      243303      |     261745
Характеристики диапазона извлечения и сообщения об ошибках
Выбранный диапазон
     Имя файла C:\Users\КИРИЛЛ\Desktop\Владимир Ждамиров - За забором весна.wav
     Пиковый уровень 98.8 %
     Скорость извлечения 2.2 X
     Качество диапазона 100.0 %
     CRC теста 6EB5B27B
     CRC копии 6EB5B27B
     Копирование... OK
Ошибок не произошло
AccurateRip: сводка
Трек  1  отсутствует в базе данных
Трек  2  отсутствует в базе данных
Трек  3  отсутствует в базе данных
Трек  4  отсутствует в базе данных
Трек  5  отсутствует в базе данных
Трек  6  отсутствует в базе данных
Трек  7  отсутствует в базе данных
Трек  8  отсутствует в базе данных
Трек  9  отсутствует в базе данных
Трек 10  отсутствует в базе данных
Трек 11  отсутствует в базе данных
Трек 12  отсутствует в базе данных
Трек 13  отсутствует в базе данных
Ни одного трека нет в базе AccurateRip
Конец отчёта

Отчёт auCDtect Task manager&#58;

-----------------------
DON'T MODIFY THIS FILE
-----------------------
PERFORMER: auCDtect Task Manager, ver. 1.0.0 Stable build 1.0.0.0
Copyright (c) 2008, 2009 y-soft. All rights reserved
http://y-soft.110mb.com
ANALYZER: auCDtect: CD records authenticity detector, version 0.8.2
Copyright (c) 2004 Oleg Berngardt. All rights reserved.
Copyright (c) 2004 Alexander Djourik. All rights reserved.
FILE: Владимир Ждамиров - За забором весна.flac
  Size: 425249701 Hash: DD14F4E750F4FB89876A51677E75FEEB Accuracy: -m0
  Conclusion: CDDA 100%
  Signature: 862E0D0DD912D332EDA46EBE1008C5ECCC430B76
-
Яндекс.Метрика
Рейтинг@Mail.ru