Василиса ( Антон Сиверс) [2014, История, Мелодрама, WEBRip]

 

Создавать темы 14-Дек-2014 21:07

Василиса -- Год выпуска: 2014
Производство: Россия
Жанр: История, Мелодрама
Режиссер: Антон Сиверс
Продюсер: Андрей Смирнов, Юрий Сапронов, Михаил Вавилов
Актеры:
Светлана Ходченкова, Дмитрий Соломыкин, Жером Кузан, Кристина Кузьмина, Игорь Черневич, Андрей Ильин,
Ирина Розанова, Илья Носков, Андрей Носков, Жоанн Морио
Описание фильма:
Он дворянин, а она - крепостная крестьянка... Им не суждено быть вместе. Возможно, так и закончилась бы эта любовная история, если бы не ВОЙНА.
Наполеон вторгся в пределы Российской Империи, и этот день изменил привычный уклад и сословные предрассудки.
Мир больше никогда не станет прежним. Война пишет новую историю любви.

КИНОПОИСК
СЭМПЛ
Дата российской премьеры: 4 декабря 2014, «Парадиз»
Продолжительность: 01:35:54
Качество видео: WEBRip
Видео: MPEG-4 AVC/H.264, 1024x576 (16:9), 24.000 fps, 2 028 Kbps (0.143 bit/pixel)
Аудио: AC-3, 48.0 KHz, 2 ch, 256 Kbps, CBR

MediaInfo

Complete name \Василиса.2014. WEBRip.mkv
Format : Matroska
Format version : Version 2
File size : 1.56 GiB
Duration : 1h 35mn
Overall bit rate : 2 330 Kbps
Movie name : Василиса
Encoded date : UTC 2014-12-14 18:16:44
Writing application : mkvmerge v5.8.0 ('No Sleep / Pillow') built on Sep 2 2012 15:37:04
Writing library : libebml v1.2.3 + libmatroska v1.3.0
Video
ID : 1
Format : AVC
Format/Info : Advanced Video Codec
Format profile : [url=mailto:[email protected]][email protected][/url]
Format settings, CABAC : Yes
Format settings, ReFrames : 6 frames
Codec ID : V_MPEG4/ISO/AVC
Duration : 1h 35mn
Bit rate : 2 028 Kbps
Width : 1 024 pixels
Height : 576 pixels
Display aspect ratio : 16:9
Frame rate mode : Constant
Frame rate : 24.000 fps
Color space : YUV
Chroma subsampling : 4:2:0
Bit depth : 8 bits
Scan type : Progressive
Bits/(Pixel*Frame) : 0.143
Stream size : 1.36 GiB (87%)
Default : Yes
Forced : No
Audio
ID : 2
Format : AC-3
Format/Info : Audio Coding 3
Mode extension : CM (complete main)
Format settings, Endianness : Big
Codec ID : A_AC3
Duration : 1h 35mn
Bit rate mode : Constant
Bit rate : 256 Kbps
Channel(s) : 2 channels
Channel positions : Front: L R
Sampling rate : 48.0 KHz
Bit depth : 16 bits
Compression mode : Lossy
Stream size : 176 MiB (11%)
Default : Yes
Forced : No
Скриншоты:
Яндекс.Метрика
Рейтинг@Mail.ru