Лучшее во мне / The Best of Me (2014) WEB-DL [H.264/1080p-LQ]

 

Создавать темы 15-Дек-2014 10:56

-Лучшее во мне / The Best of Me (2014) WEB-DL [H.264/1080p-LQ]--«Ты никогда не забудешь свою первую любовь»-- Год выпуска: 2014
Производство: США / DiNovi Pictures, Finch Entertainment, Relativity Media, Surefire Entertainment Capital
Жанр: Драма, Мелодрама
Режиссер: Майкл Хоффман
Продюсер: Джастин Бёрнс, Денис Ди Нови, Элисон Гринспе
Актеры: Джеймс Марсден, Мишель Монахэн, Лиана Либерато, Люк Брейси, Джералд МакРэйни, Кэролайн Гудолл, Скайлер Фиск, Джон Тенни, Себастьян
Описание фильма:
История о двух бывших возлюбленных подростках. Никто из них не жил жизнью, которую они представляли и никто не может забыть страстную первую любовь, которая изменила всю жизнь. И вот обоих зовут на похороны их наставника, который когда-то дал им приют.
Перевод: Дублированный | iTunes |
Субтитры: Отсутствуют

Дата мировой премьеры: 7 октября 2014
Дата российской премьеры: 13 ноября 2014, «Парадиз»
Дата выхода DVD релиза: 20 января 2015, «Парадиз / Активижен»
Продолжительность: 01:57:41
Качество видео: WEB-DL 1080p-LQ
Видеокодек: MPEG-4 AVC/H.264
Битрейт видео: 3969 kb/s
Размер кадра: 1920x810
Аудио: AC3, 384 Kb/s, (6 ch)
Сэмпл: Скачать

MediaInfo:

Общее
Уникальный идентификатор                 : 198846791158161802664859897846795849357 (0x95987FBAC5EC3F4E9B1C47A7F303CE8D)
Полное имя                               : Luchshee.vo.mne.2014.D.WEB-DL.1080p.nnm-club.mkv
Формат                                   : Matroska
Версия формата                           : Version 4 / Version 2
Размер файла                             : 3,65 Гбайт
Продолжительность                        : 1 ч. 57 м.
Общий поток                              : 4441 Кбит/сек
Дата кодирования                         : UTC 2014-12-14 21:22:05
Программа кодирования                    : mkvmerge v6.9.1 ('Blue Panther') 64bit built on Apr 18 2014 18:23:38
Библиотека кодирования                   : libebml v1.3.0 + libmatroska v1.4.1
Видео
Идентификатор                            : 1
Формат                                   : AVC
Формат/Информация                        : Advanced Video Codec
Профиль формата                          : [url=mailto:[email protected]][email protected][/url]
Параметр CABAC формата                   : Да
Параметр ReFrames формата                : 5 кадров
Идентификатор кодека                     : V_MPEG4/ISO/AVC
Продолжительность                        : 1 ч. 57 м.
Битрейт                                  : 3969 Кбит/сек
Ширина                                   : 1920 пикселей
Высота                                   : 810 пикселей
Соотношение сторон                       : 2,40:1
Режим частоты кадров                     : Постоянный
Частота кадров                           : 24,000 кадра/сек
Цветовое пространство                    : YUV
Субдискретизация насыщенности            : 4:2:0
Битовая глубина                          : 8 бит
Тип развёртки                            : Прогрессивная
Бит/(Пиксели*Кадры)                      : 0.106
Размер потока                            : 3,26 Гбайт (89%)
Язык                                     : English
Default                                  : Да
Forced                                   : Нет
Основные цвета                           : BT.709
Характеристики трансфера                 : BT.709
Коэффициенты матрицы                     : BT.709
Аудио
Идентификатор                            : 2
Формат                                   : AC-3
Формат/Информация                        : Audio Coding 3
Расширение режима                        : CM (complete main)
Параметр Endianness формата              : Big
Идентификатор кодека                     : A_AC3
Продолжительность                        : 1 ч. 57 м.
Вид битрейта                             : Постоянный
Битрейт                                  : 384 Кбит/сек
Каналы                                   : 6 каналов
Расположение каналов                     : Front: L C R, Side: L R, LFE
Частота                                  : 48,0 КГц
Битовая глубина                          : 16 бит
Метод сжатия                             : С потерями
Размер потока                            : 323 Мбайт (9%)
Язык                                     : Russian
Default                                  : Да
Forced                                   : Нет
Меню
00:00:00.000                             : en:Глава 1
00:05:12.000                             : en:Глава 2
00:09:48.000                             : en:Глава 3
00:14:52.000                             : en:Глава 4
00:19:36.000                             : en:Глава 5
00:24:31.000                             : en:Глава 6
00:29:54.000                             : en:Глава 7
00:36:13.000                             : en:Глава 8
00:41:24.000                             : en:Глава 9
00:46:19.000                             : en:Глава 10
00:51:13.000                             : en:Глава 11
00:56:51.000                             : en:Глава 12
01:02:05.000                             : en:Глава 13
01:07:39.000                             : en:Глава 14
01:13:00.000                             : en:Глава 15
01:18:57.000                             : en:Глава 16
01:24:54.000                             : en:Глава 17
01:30:41.000                             : en:Глава 18
01:36:18.000                             : en:Глава 19
01:43:11.000                             : en:Глава 20
01:49:12.000                             : en:Глава 21
Скриншоты:
-Время раздачи: 24/7 (до 10 скачавших)
Яндекс.Метрика
Рейтинг@Mail.ru