Бункер 11 / Outpost 11 (2012) HDRip [VO]

 

Создавать темы 15-Дек-2014 17:07

- Бункер 11 / Outpost 11 (2012)- Год выпуска: 2012
Производство: Великобритания
Жанр: Фантастика
Режиссер: Энтони Вудли
Актеры:
Билли Кларк, Люк Хили, Бернард Хилл, Джошуа Майерс-Купер, Грэхем Тилл
Описание фильма:
Три солдата несут службу в засекреченном бункере за пределами Арктического круга. Отрезанные от всего мира, они годами не получают указаний и даже не знают, как обстоят дела на войне. Но однажды их обыденность нарушается долгожданным сообщением Генштаба. Впрочем, все ли они обрадованы перспективой вернуться домой?
Перевод: Любительский (одноголосый) [Васька Куролесов - новый микрофон]
Субтитры: Отсутствуют-
Дата мировой премьеры: 31 декабря 2012-Продолжительность: 01:30:10
Качество видео: HDRip
Видеокодек: XviD
Битрейт видео: 1 986 Kbit/s
Размер кадра: 720x304
Аудиокодек: AC-3
Битрейт аудио: AC3, 192 kbit/s (2 ch), 48 Кгц
Сэмпл: Скачать

MediaInfo:

Общее
Полное имя : D:\Фильмы новинки\Outpost.11.2012.HDRip.avi
Формат : AVI
Формат/Информация : Audio Video Interleave
Размер файла : 1,38 Гбайт
Продолжительность : 1 ч. 30 м.
Общий поток : 2188 Кбит/сек
Программа кодирования : VirtualDubMod 1.5.10.3 | www.virtualdub-fr.org || (build 2550/release)
Библиотека кодирования : VirtualDubMod build 2550/release
Видео
Идентификатор : 0
Формат : MPEG-4 Visual
Профиль формата : Advanced [email protected]
Параметр BVOP формата : 1
Параметр QPel формата : Нет
Параметр GMC формата : Без точки перехода
Параметр матрицы формата : Default (MPEG)
Идентификатор кодека : XVID
Идентификатор кодека/Подсказка : XviD
Продолжительность : 1 ч. 30 м.
Битрейт : 1986 Кбит/сек
Ширина : 720 пикселей
Высота : 304 пикселя
Соотношение сторон : 2,35:1
Частота кадров : 25,000 кадров/сек
Цветовое пространство : YUV
Субдискретизация насыщенности : 4:2:0
Битовая глубина : 8 бит
Тип развёртки : Прогрессивная
Метод сжатия : С потерями
Бит/(Пиксели*Кадры) : 0.363
Размер потока : 1,25 Гбайт (91%)
Библиотека кодирования : XviD 1.2.1 (UTC 2008-12-04)
Аудио
Идентификатор : 1
Формат : AC-3
Формат/Информация : Audio Coding 3
Расширение режима : CM (complete main)
Параметр Endianness формата : Big
Идентификатор кодека : 2000
Продолжительность : 1 ч. 30 м.
Вид битрейта : Постоянный
Битрейт : 192 Кбит/сек
Каналы : 2 канала
Расположение каналов : Front: L R
Частота : 48,0 КГц
Битовая глубина : 16 бит
Метод сжатия : С потерями
Размер потока : 124 Мбайт (9%)
Выравнивание : Разделение по промежуткам
Продолжительность промежутка : 40 мс. (1,00 видеокадр)
Время предзагрузки промежутка : 500 мс.
Скриншоты:-Время раздачи: По возможности. До первых 5 сидов.
Яндекс.Метрика
Рейтинг@Mail.ru