Серия - Собрание сочинений. Дело №... (2001-2003) [FLAC|Lossless]<Шансон>

 

Создавать темы 16-Дек-2014 20:20

-Серия - Собрание сочинений. Дело №... (2001-2003)- Год издания: 2001-2003
Жанр: Шансон
Страна: Россия
Лейбл: Winner Music
Продолжительность: 20:50:37
Кодек: FLAC (*.flac)
Битрейт: lossless
Тип рипа: image+.cue
Треклист:--

2001 - Дело № 001&#58; Сергей Наговицин&#58;

Год издания: 2001
Каталог №: BK122
Пpoдолжительность: 01:12:09
Tpек лист:
1.Городские встречи
2.Море чёрное
3.Кабакам, кабацкий дым
4.Приговор
5.Белый снег
6.Зона
7.Свадьба
8.Первомай
9.Вечер для звёзд
10.Санаторий
11.Золотистые денёчки
12.Говорила мне мать
13.Дори-дори
14.Разбитая судьба
15.До свиданья, кореша

Отчёт ЕАС&#58;

Exact Audio Copy V1.0 beta 1 from 15. November 2010
EAC extraction logfile from 19. February 2011, 14:20
Сергей Наговицин / Дело № 001
Used drive  : PIONEER DVD-RW  DVR-216D   Adapter: 2  ID: 1
Read mode               : Secure
Utilize accurate stream : Yes
Defeat audio cache      : Yes
Make use of C2 pointers : No
Read offset correction                      : 96
Overread into Lead-In and Lead-Out          : No
Fill up missing offset samples with silence : Yes
Delete leading and trailing silent blocks   : No
Null samples used in CRC calculations       : Yes
Used interface                              : Native Win32 interface for Win NT & 2000
Used output format              : User Defined Encoder
Selected bitrate                : 1024 kBit/s
Quality                         : High
Add ID3 tag                     : No
Command line compressor         : C:\Program Files (x86)\Exact Audio Copy\FLAC\FLAC.EXE
Additional command line options : -8 -V -T "ARTIST=%a" -T "TITLE=%t" -T "ALBUM=%g" -T "DATE=%y" -T "TRACKNUMBER=%n" -T "GENRE=%m" -T "COMMENT=%e" %j--picture="%i"%j %s -o %d
TOC of the extracted CD
     Track |   Start  |  Length  | Start sector | End sector
    ---------------------------------------------------------
        1  |  0:00.00 |  4:01.36 |         0    |    18110
        2  |  4:01.36 |  3:55.65 |     18111    |    35800
        3  |  7:57.26 |  4:34.72 |     35801    |    56422
        4  | 12:32.23 |  8:10.53 |     56423    |    93225
        5  | 20:43.01 |  5:32.36 |     93226    |   118161
        6  | 26:15.37 |  5:43.46 |    118162    |   143932
        7  | 31:59.08 |  4:00.53 |    143933    |   161985
        8  | 35:59.61 |  4:00.38 |    161986    |   180023
        9  | 40:00.24 |  3:47.64 |    180024    |   197112
       10  | 43:48.13 |  3:35.51 |    197113    |   213288
       11  | 47:23.64 |  3:22.67 |    213289    |   228505
       12  | 50:46.56 |  4:42.23 |    228506    |   249678
       13  | 55:29.04 |  3:33.09 |    249679    |   265662
       14  | 59:02.13 |  6:04.58 |    265663    |   293020
       15  | 65:06.71 |  7:01.49 |    293021    |   324644
Range status and errors
Selected range
     Filename H:\Новая папка (2)\Сергей Наговицин - Дело № 001.wav
     Peak level 96.6 %
     Extraction speed 0.7 X
     Range quality 99.9 %
     Test CRC 8D59F820
     Copy CRC 8D59F820
     Copy OK
No errors occurred
AccurateRip summary
Track  1  not present in database
Track  2  not present in database
Track  3  not present in database
Track  4  not present in database
Track  5  not present in database
Track  6  not present in database
Track  7  not present in database
Track  8  not present in database
Track  9  not present in database
Track 10  not present in database
Track 11  not present in database
Track 12  not present in database
Track 13  not present in database
Track 14  not present in database
Track 15  not present in database
None of the tracks are present in the AccurateRip database
End of status report
==== Log checksum 12745F5B57A7A1FC472A771F6CB05D005B3F195A396C91E4B184E7E3B6A425D0 ====

Отчёт auCDtect Task manager&#58;

-----------------------
DON'T MODIFY THIS FILE
-----------------------
PERFORMER: auCDtect Task Manager, ver. 1.6.0 RC1 build 1.6.0.1
Copyright (c) 2008-2010 y-soft. All rights reserved
http://y-soft.org
ANALYZER: auCDtect: CD records authenticity detector, version 0.8.2
Copyright (c) 2004 Oleg Berngardt. All rights reserved.
Copyright (c) 2004 Alexander Djourik. All rights reserved.
FILE: Сергей Наговицин - Дело № 001.flac
  Size: 517431470 Hash: 53BE1B862B88FB87215DE19846FDCF47 Accuracy: -m0
  Conclusion: CDDA 100%
  Signature: E184805D5EFDD21B3536A99F89A97AA3F37AADC7

2001 - Дело № 002&#58; Катя Огонёк&#58;

Год издания: 2001
Каталог №: BK106
Пpoдолжительность: 01:12:08
Tpек лист:
01 Дорожный роман
02 Следователь
03 В северную ночь
04 Зацелую тебя
05 Черное черное море
06 Вор
07 Дорога домой
08 Через года
09 Белая тайга
10 Лейтенантик
11 Напиши
12 Я ревную тебя
13 Роза
14 Жиган
15 Хакинск
16 Глупенький
17 Детка малолетка
18 Пацаны

Отчёт ЕАС&#58;

Exact Audio Copy V0.99 prebeta 5 from 4. May 2009
Отчёт EAC об извлечении, выполненном 12. сентября 2010, 23:04
Катя Огонёк / Дело № 002
Дисковод: PIONEER DVD-RW  DVR-216D   Adapter: 2  ID: 1
Режим чтения                 : Достоверность
Использование точного потока : Да
Отключение кэша аудио        : Да
Использование указателей C2  : Нет
Коррекция смещения при чтении                     : 96
Способность читать области Lead-in и Lead-out     : Нет
Заполнение пропущенных сэмплов тишиной            : Да
Удаление блоков с тишиной в начале и конце        : Нет
При вычислениях CRC использовались нулевые сэмплы : Да
Интерфейс                                         : Встроенный Win32-интерфейс для Win NT/2000
Выходной формат          : Пользовательский кодировщик
Выбранный битрейт        : 1024 kBit/s
Качество                 : Высокий
Добавление ID3-тэга      : Нет
Утилита сжатия           : C:\Program Files (x86)\Exact Audio Copy\Flac\flac.exe
Дополнительные параметры : -8 -V %s
TOC извлечённого CD
     Трек |   Старт  | Длительность | Начальный сектор | Конечный сектор
    ---------------------------------------------------------------------
       1  |  0:00.00 |    5:29.69   |           0      |      24743
       2  |  5:29.69 |    3:23.62   |       24744      |      40030
       3  |  8:53.56 |    4:20.22   |       40031      |      59552
       4  | 13:14.03 |    2:53.17   |       59553      |      72544
       5  | 16:07.20 |    3:32.16   |       72545      |      88460
       6  | 19:39.36 |    3:35.60   |       88461      |     104645
       7  | 23:15.21 |    4:58.51   |      104646      |     127046
       8  | 28:13.72 |    3:06.58   |      127047      |     141054
       9  | 31:20.55 |    4:49.52   |      141055      |     162781
      10  | 36:10.32 |    4:24.08   |      162782      |     182589
      11  | 40:34.40 |    3:42.23   |      182590      |     199262
      12  | 44:16.63 |    4:40.11   |      199263      |     220273
      13  | 48:56.74 |    3:41.69   |      220274      |     236917
      14  | 52:38.68 |    4:04.36   |      236918      |     255253
      15  | 56:43.29 |    5:04.33   |      255254      |     278086
      16  | 61:47.62 |    3:24.63   |      278087      |     293449
      17  | 65:12.50 |    3:55.39   |      293450      |     311113
      18  | 69:08.14 |    3:00.06   |      311114      |     324619
Характеристики диапазона извлечения и сообщения об ошибках
Выбранный диапазон
     Имя файла H:\Шансон\Огонёк Катя\Дело № 002\Катя Огонёк - Дело № 002.wav
     Пиковый уровень 96.6 %
     Качество диапазона 100.0 %
     CRC теста C1D2BFE6
     CRC копии C1D2BFE6
     Копирование... OK
Ошибок не произошло
AccurateRip: сводка
Трек  1  нет в базе данных
Трек  2  нет в базе данных
Трек  3  нет в базе данных
Трек  4  нет в базе данных
Трек  5  нет в базе данных
Трек  6  нет в базе данных
Трек  7  нет в базе данных
Трек  8  нет в базе данных
Трек  9  нет в базе данных
Трек 10  нет в базе данных
Трек 11  нет в базе данных
Трек 12  нет в базе данных
Трек 13  нет в базе данных
Трек 14  нет в базе данных
Трек 15  нет в базе данных
Трек 16  нет в базе данных
Трек 17  нет в базе данных
Трек 18  нет в базе данных
Ни одного трека нет в базе AccurateRip
Конец отчёта

Отчёт auCDtect Task manager&#58;

-----------------------
DON'T MODIFY THIS FILE
-----------------------
PERFORMER: auCDtect Task Manager, ver. 1.6.0 RC1 build 1.6.0.1
Copyright (c) 2008-2010 y-soft. All rights reserved
http://y-soft.org
ANALYZER: auCDtect: CD records authenticity detector, version 0.8.2
Copyright (c) 2004 Oleg Berngardt. All rights reserved.
Copyright (c) 2004 Alexander Djourik. All rights reserved.
FILE: Катя Огонёк - Дело № 002.flac
  Size: 510535410 Hash: 8765C2FAA5E4D1CB0BF287B3AC85D313 Accuracy: -m0
  Conclusion: CDDA 100%
  Signature: 322FCDE739F235D50C2125232ABE0C851008C291

2001 - Дело № 004&#58; Иван Кучин&#58;

Год издания: 2001
Каталог №: BK120
Пpoдолжительность: 01:12:34
Tpек лист:
01 Колечко
02 Обыкновенная
03 В таверне
04 Жиганская душа
05 Заряженный наган
06 На перроне вокзала
07 Сентиментальный детектив-1
08 Цветет сирень
09 Таволга
10 Судьба воровская
11 Белый лебедь
12 Пройдут года
13 Прощай, прощай
14 Изба
15 Не уходи
16 Сентиментальный детектив-2
17 А на черных ресницах
18 Человек в телогрейке
19 Крестовая печать

Отчёт ЕАС&#58;

Exact Audio Copy V0.99 prebeta 5 from 4. May 2009
Отчёт EAC об извлечении, выполненном 28. сентября 2010, 22:27
Иван Кучин / Дело № 4
Дисковод: PIONEER DVD-RW  DVR-216D   Adapter: 1  ID: 1
Режим чтения                 : Достоверность
Использование точного потока : Да
Отключение кэша аудио        : Да
Использование указателей C2  : Нет
Коррекция смещения при чтении                     : 96
Способность читать области Lead-in и Lead-out     : Нет
Заполнение пропущенных сэмплов тишиной            : Да
Удаление блоков с тишиной в начале и конце        : Нет
При вычислениях CRC использовались нулевые сэмплы : Да
Интерфейс                                         : Встроенный Win32-интерфейс для Win NT/2000
Выходной формат          : Пользовательский кодировщик
Выбранный битрейт        : 1024 kBit/s
Качество                 : Высокий
Добавление ID3-тэга      : Нет
Утилита сжатия           : C:\Program Files (x86)\Exact Audio Copy\Flac\flac.exe
Дополнительные параметры : -8 V %s
TOC извлечённого CD
     Трек |   Старт  | Длительность | Начальный сектор | Конечный сектор
    ---------------------------------------------------------------------
       1  |  0:00.00 |    3:24.43   |           0      |      15342
       2  |  3:24.43 |    3:41.34   |       15343      |      31951
       3  |  7:06.02 |    4:18.08   |       31952      |      51309
       4  | 11:24.10 |    3:13.48   |       51310      |      65832
       5  | 14:37.58 |    3:01.62   |       65833      |      79469
       6  | 17:39.45 |    3:34.33   |       79470      |      95552
       7  | 21:14.03 |    3:28.55   |       95553      |     111207
       8  | 24:42.58 |    4:09.37   |      111208      |     129919
       9  | 28:52.20 |    3:35.10   |      129920      |     146054
      10  | 32:27.30 |    3:43.59   |      146055      |     162838
      11  | 36:11.14 |    4:24.37   |      162839      |     182675
      12  | 40:35.51 |    3:39.56   |      182676      |     199156
      13  | 44:15.32 |    4:24.59   |      199157      |     219015
      14  | 48:40.16 |    4:06.44   |      219016      |     237509
      15  | 52:46.60 |    3:29.23   |      237510      |     253207
      16  | 56:16.08 |    3:28.42   |      253208      |     268849
      17  | 59:44.50 |    3:22.28   |      268850      |     284027
      18  | 63:07.03 |    5:16.74   |      284028      |     307801
      19  | 68:24.02 |    4:10.10   |      307802      |     326561
Характеристики диапазона извлечения и сообщения об ошибках
Выбранный диапазон
     Имя файла H:\Собрание сочинений 2001_2002\Новая папка\Иван Кучин - Дело № 4.wav
     Подозрительная позиция 0:48:15
     Пиковый уровень 96.6 %
     Качество диапазона 99.9 %
     CRC теста 25C06864
     CRC копии 648EDAA0
     Копирование завершено
Были ошибки
Конец отчёта

Отчёт auCDtect Task manager&#58;

-----------------------
DON'T MODIFY THIS FILE
-----------------------
PERFORMER: auCDtect Task Manager, ver. 1.6.0 RC1 build 1.6.0.1
Copyright (c) 2008-2010 y-soft. All rights reserved
http://y-soft.org
ANALYZER: auCDtect: CD records authenticity detector, version 0.8.2
Copyright (c) 2004 Oleg Berngardt. All rights reserved.
Copyright (c) 2004 Alexander Djourik. All rights reserved.
FILE: Иван Кучин - Дело № 004.flac
  Size: 543229332 Hash: BF36EFE1A336113E2BD0507D54E06C82 Accuracy: -m0
  Conclusion: CDDA 100%
  Signature: F64265C8E0FCC7290391A0D802E3A72804C234CB

Отчёт AccurateRip&#58;

CUE Corrector v.5.7.1 (build 386)
Иван Кучин / Дело № 4
[AccurateRip ID: 00305824-02a92b7d-37110213] disk not present in database.
Get file: http://www.accuraterip.com/accuraterip/4/2/8/dBAR-019-00305824-02a92b7d-37110213.bin
=======Our disk=======
id1=3168292
id2=44641149
cddbId=923861523
AccurateRip summary
Track   1  not present in database
Track   2  not present in database
Track   3  not present in database
Track   4  not present in database
Track   5  not present in database
Track   6  not present in database
Track   7  not present in database
Track   8  not present in database
Track   9  not present in database
Track  10  not present in database
Track  11  not present in database
Track  12  not present in database
Track  13  not present in database
Track  14  not present in database
Track  15  not present in database
Track  16  not present in database
Track  17  not present in database
Track  18  not present in database
Track  19  not present in database
None of the tracks are present in the AccurateRip database
Track Peak [ CRC32  ] [W/O NULL] [  LOG   ] [  ARv1  ] [  ARv2  ]
--   96.6 [648EDAA0] [DC8E8A2F]   CRC32
01   96.6 [F86BE4D4] [A56D4562]            [FF474B03] [02210DC2]
02   96.6 [9A94CB24] [946795D3]            [FB7B1020] [A8E865A9]
03   96.6 [F525A617] [73528D6C]            [AEF4013C] [6C85FD54]
04   96.6 [FA048AC9] [D6D6E82A]            [BEE8590D] [EAE27CBC]
05   96.6 [23E9DF7A] [321794F2]            [3F586A65] [2977FD24]
06   96.6 [91A89590] [E4C1AAF6]            [74D3ABCF] [51AFDFA8]
07   96.6 [FBB13D37] [57A4E8E5]            [9F2BC9C9] [D5BAEDA4]
08   96.6 [16D5FB21] [CC468AC7]            [F8E660A9] [8F85B3CA]
09   96.6 [F45645F3] [5F603745]            [BA51D894] [2051329A]
10   96.6 [0E4B82B5] [C98BE1D1]            [56E99CE7] [FE328082]
11   96.6 [E36CB076] [71C5F7BC]            [4B2A4325] [D6AF401D]
12   96.6 [8C2D8A03] [38E76328]            [F9705F82] [64F392DB]
13   96.6 [6DB88C7A] [BA78C0D2]            [3FB2447A] [E48A85E4]
14   96.6 [3D2A4DFB] [4A0AAC21]            [6852729B] [B77DC21E]
15   96.6 [52819DE8] [583972DC]            [2A1B67F6] [43D54085]
16   96.6 [54A13483] [467BA1CB]            [C4B4A6E0] [C1690DA1]
17   96.6 [FAB36861] [B29D05E6]            [08E77661] [AD3FB3F3]
18   96.6 [F69C65F6] [D2F82E5F]            [DCFB4F30] [B5033357]
19   96.6 [3E19044C] [0A65A09B]            [D2A8BAAC] [DEE739DF]
Log created at 08. June 2013, 11:06:27
Time elapsed: 00:00:36 sec.
=== 674B11D4ABE94EADAE7933E606440D6D973D3A48D114439FE1D8301D2A9D3A00 ===

2001 - Дело № 005&#58; Александр Дюмин&#58;

Год издания: 2001
Каталог №: BK128
Пpoдолжительность: 01:10:37
Tpек лист:
1. Шальная
2. Тук-тук-тук
3. Люберцы
4. Времечко
5. Шпана
6. Пацаны
7. Сочи-Магадан
8. Каторжанская
9. Тюрьма
10. Танька
11. Урка
12. Хуторок
13. Мусорок
14. Так и покатил я
15. Неволя
16. Сказачная беседка
17. Босота
18. Одна у меня
19. Валюха
20. Суета-муета
21. Игра от любви
22. Наша жизнь

Отчёт ЕАС&#58;

Exact Audio Copy V1.0 beta 1 from 15. November 2010
EAC extraction logfile from 19. February 2011, 13:51
Александр Дюмин / Дело № 005
Used drive  : PIONEER DVD-RW  DVR-216D   Adapter: 2  ID: 1
Read mode               : Secure
Utilize accurate stream : Yes
Defeat audio cache      : Yes
Make use of C2 pointers : No
Read offset correction                      : 96
Overread into Lead-In and Lead-Out          : No
Fill up missing offset samples with silence : Yes
Delete leading and trailing silent blocks   : No
Null samples used in CRC calculations       : Yes
Used interface                              : Native Win32 interface for Win NT & 2000
Used output format              : User Defined Encoder
Selected bitrate                : 1024 kBit/s
Quality                         : High
Add ID3 tag                     : No
Command line compressor         : C:\Program Files (x86)\Exact Audio Copy\FLAC\FLAC.EXE
Additional command line options : -8 -V -T "ARTIST=%a" -T "TITLE=%t" -T "ALBUM=%g" -T "DATE=%y" -T "TRACKNUMBER=%n" -T "GENRE=%m" -T "COMMENT=%e" %j--picture="%i"%j %s -o %d
TOC of the extracted CD
     Track |   Start  |  Length  | Start sector | End sector
    ---------------------------------------------------------
        1  |  0:00.00 |  2:40.38 |         0    |    12037
        2  |  2:40.38 |  2:51.14 |     12038    |    24876
        3  |  5:31.52 |  3:10.62 |     24877    |    39188
        4  |  8:42.39 |  2:44.09 |     39189    |    51497
        5  | 11:26.48 |  3:21.34 |     51498    |    66606
        6  | 14:48.07 |  3:45.05 |     66607    |    83486
        7  | 18:33.12 |  2:59.08 |     83487    |    96919
        8  | 21:32.20 |  3:15.44 |     96920    |   111588
        9  | 24:47.64 |  2:27.56 |    111589    |   122669
       10  | 27:15.45 |  3:16.17 |    122670    |   137386
       11  | 30:31.62 |  4:45.14 |    137387    |   158775
       12  | 35:17.01 |  2:48.37 |    158776    |   171412
       13  | 38:05.38 |  3:34.03 |    171413    |   187465
       14  | 41:39.41 |  3:23.08 |    187466    |   202698
       15  | 45:02.49 |  2:53.33 |    202699    |   215706
       16  | 47:56.07 |  3:21.57 |    215707    |   230838
       17  | 51:17.64 |  3:06.18 |    230839    |   244806
       18  | 54:24.07 |  3:15.41 |    244807    |   259472
       19  | 57:39.48 |  3:17.16 |    259473    |   274263
       20  | 60:56.64 |  3:09.52 |    274264    |   288490
       21  | 64:06.41 |  3:18.50 |    288491    |   303390
       22  | 67:25.16 |  3:11.44 |    303391    |   317759
Range status and errors
Selected range
     Filename H:\Новая папка (2)\Александр Дюмин - Дело № 005.wav
     Peak level 100.0 %
     Extraction speed 0.2 X
     Range quality 99.9 %
     Test CRC B40B733A
     Copy CRC B40B733A
     Copy OK
No errors occurred
AccurateRip summary
Track  1  not present in database
Track  2  not present in database
Track  3  not present in database
Track  4  not present in database
Track  5  not present in database
Track  6  not present in database
Track  7  not present in database
Track  8  not present in database
Track  9  not present in database
Track 10  not present in database
Track 11  not present in database
Track 12  not present in database
Track 13  not present in database
Track 14  not present in database
Track 15  not present in database
Track 16  not present in database
Track 17  not present in database
Track 18  not present in database
Track 19  not present in database
Track 20  not present in database
Track 21  not present in database
Track 22  not present in database
None of the tracks are present in the AccurateRip database
End of status report
==== Log checksum A99553D4A627208E1B2D661D0D389E3DDE11E5D01B87A31BF7B85E79E5D1FB3E ====

Отчёт auCDtect Task manager&#58;

-----------------------
DON'T MODIFY THIS FILE
-----------------------
PERFORMER: auCDtect Task Manager, ver. 1.6.0 RC1 build 1.6.0.1
Copyright (c) 2008-2010 y-soft. All rights reserved
http://y-soft.org
ANALYZER: auCDtect: CD records authenticity detector, version 0.8.2
Copyright (c) 2004 Oleg Berngardt. All rights reserved.
Copyright (c) 2004 Alexander Djourik. All rights reserved.
FILE: Дело № 005_Александр Дюмин_2001.flac
  Size: 524051559 Hash: 858ECF8139FB5F544CF5796BF4E43692 Accuracy: -m0
  Conclusion: CDDA 100%
  Signature: 530D8168A509555837A491E020FD1EF80C1B5271

2001 - Дело № 006&#58; Михаил Круг&#58;

Год издания: 2001
Каталог №: BK142
Пpoдолжительность: 01:12:57
Tpек лист:
01 Свобода
02 Рубикон
03 Ностальгия будущей любви
04 Водочку пьем...
05 Все сбудется
06 Красные карманы
07 Мамины подружки
08 Маравихер
09 Мышка
10 Я знаю вас
11 Браво
12 Жиган-лимон
13 Красные карманы
14 Чай с баранками
15 Доброго пути
16 Мой бог/Маравихер-2/
17 Мадам
18 Роза
19 Владимирский централ
20 Девочка-пай

Отчёт ЕАС&#58;

Exact Audio Copy V0.99 prebeta 5 from 4. May 2009
Отчёт EAC об извлечении, выполненном 27. сентября 2010, 19:43
Михаил Круг / Дело № 006
Дисковод: PIONEER DVD-RW  DVR-216D   Adapter: 1  ID: 1
Режим чтения                 : Достоверность
Использование точного потока : Да
Отключение кэша аудио        : Да
Использование указателей C2  : Нет
Коррекция смещения при чтении                     : 96
Способность читать области Lead-in и Lead-out     : Нет
Заполнение пропущенных сэмплов тишиной            : Да
Удаление блоков с тишиной в начале и конце        : Нет
При вычислениях CRC использовались нулевые сэмплы : Да
Интерфейс                                         : Встроенный Win32-интерфейс для Win NT/2000
Выходной формат          : Пользовательский кодировщик
Выбранный битрейт        : 1024 kBit/s
Качество                 : Высокий
Добавление ID3-тэга      : Нет
Утилита сжатия           : C:\Program Files (x86)\Exact Audio Copy\Flac\flac.exe
Дополнительные параметры : -8 V %s
TOC извлечённого CD
     Трек |   Старт  | Длительность | Начальный сектор | Конечный сектор
    ---------------------------------------------------------------------
       1  |  0:00.00 |    3:24.73   |           0      |      15372
       2  |  3:24.73 |    2:11.61   |       15373      |      25258
       3  |  5:36.59 |    4:09.29   |       25259      |      43962
       4  |  9:46.13 |    2:57.28   |       43963      |      57265
       5  | 12:43.41 |    2:41.18   |       57266      |      69358
       6  | 15:24.59 |    2:51.07   |       69359      |      82190
       7  | 18:15.66 |    4:08.00   |       82191      |     100790
       8  | 22:23.66 |    5:58.48   |      100791      |     127688
       9  | 28:22.39 |    3:23.63   |      127689      |     142976
      10  | 31:46.27 |    4:24.00   |      142977      |     162776
      11  | 36:10.27 |    2:35.07   |      162777      |     174408
      12  | 38:45.34 |    2:51.68   |      174409      |     187301
      13  | 41:37.27 |    2:44.52   |      187302      |     199653
      14  | 44:22.04 |    3:28.52   |      199654      |     215305
      15  | 47:50.56 |    2:17.37   |      215306      |     225617
      16  | 50:08.18 |    5:32.01   |      225618      |     250518
      17  | 55:40.19 |    4:12.55   |      250519      |     269473
      18  | 59:52.74 |    4:44.40   |      269474      |     290813
      19  | 64:37.39 |    4:24.14   |      290814      |     310627
      20  | 69:01.53 |    3:55.55   |      310628      |     328307
Характеристики диапазона извлечения и сообщения об ошибках
Выбранный диапазон
     Имя файла H:\Шансон\Круг Михаил\Михаил Круг - Дело № 006\Новая папка\Михаил Круг - Дело № 006.wav
     Пиковый уровень 96.6 %
     Качество диапазона 100.0 %
     CRC теста A9BA0ADE
     CRC копии A9BA0ADE
     Копирование... OK
Ошибок не произошло
Конец отчёта

Отчёт auCDtect Task manager&#58;

-----------------------
DON'T MODIFY THIS FILE
-----------------------
PERFORMER: auCDtect Task Manager, ver. 1.6.0 RC1 build 1.6.0.1
Copyright (c) 2008-2010 y-soft. All rights reserved
http://y-soft.org
ANALYZER: auCDtect: CD records authenticity detector, version 0.8.2
Copyright (c) 2004 Oleg Berngardt. All rights reserved.
Copyright (c) 2004 Alexander Djourik. All rights reserved.
FILE: Михаил Круг - Дело № 006.flac
  Size: 560792515 Hash: B5763628435963FD817D3DA790271A09 Accuracy: -m0
  Conclusion: CDDA 100%
  Signature: 331432757657D821A974CE236977098C51B79051

2001 - Дело № 007&#58; Слава Медяник&#58;

Год издания: 2001
Каталог №: BK143
Пpoдолжительность: 01:12:04
Tpек лист:
1. Пьяный Водитель
2. Кабацкий Дым
3. Аллилуя
4. Были мы романтики
5. День-Тень
6. Мадам
7. Дзын-За-Ра
8. Кралечка
9. Пей, Моя Девочка
10. Москва-Товарная
11. Как-то Раз На Малину
12. Не Торопись... (с Катей Огонек)
13. Полукровка
14. Ханыга
15. Черная Роза (с Аликой Смеховой)
16. Я Однажды Гулял По Столице... (с Н.Брейдер)
17. Се-Ля-Ви
18. Мы Волки...
19. Калифорния

Отчёт ЕАС&#58;

Exact Audio Copy V1.0 beta 1 from 15. November 2010
EAC extraction logfile from 19. February 2011, 13:19
Слава Медяник / Дело № 007
Used drive  : PIONEER DVD-RW  DVR-216D   Adapter: 2  ID: 1
Read mode               : Secure
Utilize accurate stream : Yes
Defeat audio cache      : Yes
Make use of C2 pointers : No
Read offset correction                      : 96
Overread into Lead-In and Lead-Out          : No
Fill up missing offset samples with silence : Yes
Delete leading and trailing silent blocks   : No
Null samples used in CRC calculations       : Yes
Used interface                              : Native Win32 interface for Win NT & 2000
Used output format              : User Defined Encoder
Selected bitrate                : 1024 kBit/s
Quality                         : High
Add ID3 tag                     : No
Command line compressor         : C:\Program Files (x86)\Exact Audio Copy\FLAC\FLAC.EXE
Additional command line options : -8 -V -T "ARTIST=%a" -T "TITLE=%t" -T "ALBUM=%g" -T "DATE=%y" -T "TRACKNUMBER=%n" -T "GENRE=%m" -T "COMMENT=%e" %j--picture="%i"%j %s -o %d
TOC of the extracted CD
     Track |   Start  |  Length  | Start sector | End sector
    ---------------------------------------------------------
        1  |  0:00.00 |  3:41.39 |         0    |    16613
        2  |  3:41.39 |  4:25.45 |     16614    |    36533
        3  |  8:07.09 |  3:56.43 |     36534    |    54276
        4  | 12:03.52 |  3:21.33 |     54277    |    69384
        5  | 15:25.10 |  3:19.40 |     69385    |    84349
        6  | 18:44.50 |  3:46.05 |     84350    |   101304
        7  | 22:30.55 |  3:08.15 |    101305    |   115419
        8  | 25:38.70 |  3:00.02 |    115420    |   128921
        9  | 28:38.72 |  3:47.08 |    128922    |   145954
       10  | 32:26.05 |  3:43.62 |    145955    |   162741
       11  | 36:09.67 |  4:23.07 |    162742    |   182473
       12  | 40:32.74 |  4:50.46 |    182474    |   204269
       13  | 45:23.45 |  5:18.45 |    204270    |   228164
       14  | 50:42.15 |  3:08.70 |    228165    |   242334
       15  | 53:51.10 |  4:14.11 |    242335    |   261395
       16  | 58:05.21 |  3:01.44 |    261396    |   275014
       17  | 61:06.65 |  3:12.05 |    275015    |   289419
       18  | 64:18.70 |  4:31.46 |    289420    |   309790
       19  | 68:50.41 |  3:13.01 |    309791    |   324266
Range status and errors
Selected range
     Filename H:\Новая папка (2)\Дело № 007_Слава Медяник_2001.wav
     Peak level 96.6 %
     Extraction speed 0.3 X
     Range quality 100.0 %
     Test CRC A7BF691D
     Copy CRC A7BF691D
     Copy OK
No errors occurred
AccurateRip summary
Track  1  not present in database
Track  2  not present in database
Track  3  not present in database
Track  4  not present in database
Track  5  not present in database
Track  6  not present in database
Track  7  not present in database
Track  8  not present in database
Track  9  not present in database
Track 10  not present in database
Track 11  not present in database
Track 12  not present in database
Track 13  not present in database
Track 14  not present in database
Track 15  not present in database
Track 16  not present in database
Track 17  not present in database
Track 18  not present in database
Track 19  not present in database
None of the tracks are present in the AccurateRip database
End of status report
==== Log checksum E3A103653154D074B0216F5D96E2C49D0C14225D15886A108710BBE85D2C47F2 ====

Отчёт auCDtect Task manager&#58;

-----------------------
DON'T MODIFY THIS FILE
-----------------------
PERFORMER: auCDtect Task Manager, ver. 1.6.0 RC1 build 1.6.0.1
Copyright (c) 2008-2010 y-soft. All rights reserved
http://y-soft.org
ANALYZER: auCDtect: CD records authenticity detector, version 0.8.2
Copyright (c) 2004 Oleg Berngardt. All rights reserved.
Copyright (c) 2004 Alexander Djourik. All rights reserved.
FILE: Дело № 007_Слава Медяник_2001.flac
  Size: 532464729 Hash: BC2F7F20291CF403F8C2E792E7564638 Accuracy: -m0
  Conclusion: CDDA 100%
  Signature: C20595745D8FC36723C3CB15533A3B18DE02E2AD

2001 - Дело № 009&#58; Таня Тишинская&#58;

Год издания: 2001
Каталог №: ВК187
Пpoдолжительность: 01:10:14
Tpек лист:
1."Угостите даму сигаретой"
2."Красавчик"
3."Володенька"
4."Цыган"
5."Орел или решка"
6."Сосновая поляна"
7."Гвоздики"
8."Белое вино"
9."Не умела играть"
10. "Скрипач"
11."Подруга"
12. "Номерок"
13."Толечка"
14."Улетай"
15."Шлюха"
16. "Я целовала тебя"
17."Мы попали с тобой под дождь"
18."Воровка"
19. "А на последок..."

Отчёт ЕАС&#58;

Exact Audio Copy V1.0 beta 1 from 15. November 2010
EAC extraction logfile from 19. February 2011, 12:49
Таня  Тишинская / Дело № 009
Used drive  : PIONEER DVD-RW  DVR-216D   Adapter: 2  ID: 1
Read mode               : Secure
Utilize accurate stream : Yes
Defeat audio cache      : Yes
Make use of C2 pointers : No
Read offset correction                      : 96
Overread into Lead-In and Lead-Out          : No
Fill up missing offset samples with silence : Yes
Delete leading and trailing silent blocks   : No
Null samples used in CRC calculations       : Yes
Used interface                              : Native Win32 interface for Win NT & 2000
Used output format              : User Defined Encoder
Selected bitrate                : 1024 kBit/s
Quality                         : High
Add ID3 tag                     : No
Command line compressor         : C:\Program Files (x86)\Exact Audio Copy\FLAC\FLAC.EXE
Additional command line options : -8 -V -T "ARTIST=%a" -T "TITLE=%t" -T "ALBUM=%g" -T "DATE=%y" -T "TRACKNUMBER=%n" -T "GENRE=%m" -T "COMMENT=%e" %j--picture="%i"%j %s -o %d
TOC of the extracted CD
     Track |   Start  |  Length  | Start sector | End sector
    ---------------------------------------------------------
        1  |  0:00.00 |  3:20.73 |         0    |    15072
        2  |  3:20.73 |  2:17.36 |     15073    |    25383
        3  |  5:38.34 |  3:20.36 |     25384    |    40419
        4  |  8:58.70 |  3:40.24 |     40420    |    56943
        5  | 12:39.19 |  3:43.19 |     56944    |    73687
        6  | 16:22.38 |  3:45.08 |     73688    |    90570
        7  | 20:07.46 |  3:40.55 |     90571    |   107125
        8  | 23:48.26 |  3:37.43 |    107126    |   123443
        9  | 27:25.69 |  4:09.55 |    123444    |   142173
       10  | 31:35.49 |  4:43.56 |    142174    |   163454
       11  | 36:19.30 |  3:51.48 |    163455    |   180827
       12  | 40:11.03 |  3:48.00 |    180828    |   197927
       13  | 43:59.03 |  3:32.35 |    197928    |   213862
       14  | 47:31.38 |  3:39.28 |    213863    |   230315
       15  | 51:10.66 |  4:29.54 |    230316    |   250544
       16  | 55:40.45 |  3:32.49 |    250545    |   266493
       17  | 59:13.19 |  3:17.08 |    266494    |   281276
       18  | 62:30.27 |  3:19.23 |    281277    |   296224
       19  | 65:49.50 |  4:24.56 |    296225    |   316080
Range status and errors
Selected range
     Filename H:\Новая папка (2)\Таня  Тишинская - Дело № 009.wav
     Peak level 96.6 %
     Extraction speed 0.4 X
     Range quality 100.0 %
     Test CRC 85C7B778
     Copy CRC 85C7B778
     Copy OK
No errors occurred
AccurateRip summary
Track  1  not present in database
Track  2  not present in database
Track  3  not present in database
Track  4  not present in database
Track  5  not present in database
Track  6  not present in database
Track  7  not present in database
Track  8  not present in database
Track  9  not present in database
Track 10  not present in database
Track 11  not present in database
Track 12  not present in database
Track 13  not present in database
Track 14  not present in database
Track 15  not present in database
Track 16  not present in database
Track 17  not present in database
Track 18  not present in database
Track 19  not present in database
None of the tracks are present in the AccurateRip database
End of status report
==== Log checksum A76CB78463794482CAD7AF49124A6C823BE73B64F2F74B01C5A5DDF068BEB08D ====

Отчёт auCDtect Task manager&#58;

-----------------------
DON'T MODIFY THIS FILE
-----------------------
PERFORMER: auCDtect Task Manager, ver. 1.6.0 RC1 build 1.6.0.1
Copyright (c) 2008-2010 y-soft. All rights reserved
http://y-soft.org
ANALYZER: auCDtect: CD records authenticity detector, version 0.8.2
Copyright (c) 2004 Oleg Berngardt. All rights reserved.
Copyright (c) 2004 Alexander Djourik. All rights reserved.
FILE: Дело № 009_Таня  Тишинская _2001.flac
  Size: 501406515 Hash: F5CCDCD43059995FE076B9BB5EE6AF67 Accuracy: -m0
  Conclusion: CDDA 100%
  Signature: 99A1090BA6F6CE474648147AD64EC5869BCDACFC

2001 - Дело № 011&#58; Трофим&#58;

Год издания: 2001
Каталог №: ВК212
Пpoдолжительность: 01:14:20
Tpек лист:
01. Судьба
02. Братва
03. Вот и всё
04. Алевтина
05. Бьюсь как рыба
06. Моя жена
07. Эх, дал бы кто
08. НЛО
09. Налоговый инспектор
10. Морской бродяга
11. "Босота" ... или Один день Мишаниной бригады
12. За наших дам
13. Дайте мне чего-нибудь
14. Ветерок
15. ТВ-новости
16. Горько
17. Иномарка
18. Рыбалка
19. Снегири
20. Короче, дело к ночи
21. Там, там, там ...
22. Про рекламу
23. Юбилей
24. Фонарики

Отчёт ЕАС&#58;

Exact Audio Copy V1.0 beta 3 from 29. August 2011
Отчёт EAC об извлечении, выполненном 5. апреля 2012, 21:17
Трофим / Собрание сочинений
Дисковод: ATAPI-CDROM-DRIVE-52MAX   Adapter: 3  ID: 1
Режим чтения                 : Достоверность
Использование точного потока : Да
Отключение кэша аудио        : Да
Использование указателей C2  : Нет
Коррекция смещения при чтении                     : 691
Способность читать области Lead-in и Lead-out     : Нет
Заполнение пропущенных сэмплов тишиной            : Да
Удаление блоков с тишиной в начале и конце        : Нет
При вычислениях CRC использовались нулевые сэмплы : Да
Интерфейс                                         : Встроенный Win32-интерфейс для Win NT/2000
Выходной формат : Внутренние WAV-операции
Формат сэмплов  : 44.100 Гц; 16 бит; стерео
TOC извлечённого CD
     Трек |   Старт  | Длительность | Начальный сектор | Конечный сектор
    ---------------------------------------------------------------------
       1  |  0:00.00 |    3:25.60   |           0      |      15434
       2  |  3:25.60 |    2:50.26   |       15435      |      28210
       3  |  6:16.11 |    2:10.51   |       28211      |      38011
       4  |  8:26.62 |    2:39.40   |       38012      |      49976
       5  | 11:06.27 |    2:40.54   |       49977      |      62030
       6  | 13:47.06 |    2:42.62   |       62031      |      74242
       7  | 16:29.68 |    3:42.08   |       74243      |      90900
       8  | 20:12.01 |    2:58.31   |       90901      |     104281
       9  | 23:10.32 |    2:50.08   |      104282      |     117039
      10  | 26:00.40 |    4:01.23   |      117040      |     135137
      11  | 30:01.63 |    3:35.07   |      135138      |     151269
      12  | 33:36.70 |    3:04.44   |      151270      |     165113
      13  | 36:41.39 |    3:10.44   |      165114      |     179407
      14  | 39:52.08 |    3:35.29   |      179408      |     195561
      15  | 43:27.37 |    2:32.49   |      195562      |     207010
      16  | 46:00.11 |    4:24.04   |      207011      |     226814
      17  | 50:24.15 |    2:30.06   |      226815      |     238070
      18  | 52:54.21 |    3:01.04   |      238071      |     251649
      19  | 55:55.25 |    2:56.45   |      251650      |     264894
      20  | 58:51.70 |    3:06.19   |      264895      |     278863
      21  | 61:58.14 |    3:51.19   |      278864      |     296207
      22  | 65:49.33 |    4:07.71   |      296208      |     314803
      23  | 69:57.29 |    1:56.06   |      314804      |     323509
      24  | 71:53.35 |    2:26.64   |      323510      |     334523
Характеристики диапазона извлечения и сообщения об ошибках
Выбранный диапазон
     Имя файла I:\Рипы\Трофим - Собрание сочинений.wav
     Пиковый уровень 96.7 %
     Скорость извлечения 3.3 X
     Качество диапазона 100.0 %
     CRC теста 94A88FD9
     CRC копии 94A88FD9
     Копирование... OK
Ошибок не произошло
AccurateRip: сводка
Трек  1  отсутствует в базе данных
Трек  2  отсутствует в базе данных
Трек  3  отсутствует в базе данных
Трек  4  отсутствует в базе данных
Трек  5  отсутствует в базе данных
Трек  6  отсутствует в базе данных
Трек  7  отсутствует в базе данных
Трек  8  отсутствует в базе данных
Трек  9  отсутствует в базе данных
Трек 10  отсутствует в базе данных
Трек 11  отсутствует в базе данных
Трек 12  отсутствует в базе данных
Трек 13  отсутствует в базе данных
Трек 14  отсутствует в базе данных
Трек 15  отсутствует в базе данных
Трек 16  отсутствует в базе данных
Трек 17  отсутствует в базе данных
Трек 18  отсутствует в базе данных
Трек 19  отсутствует в базе данных
Трек 20  отсутствует в базе данных
Трек 21  отсутствует в базе данных
Трек 22  отсутствует в базе данных
Трек 23  отсутствует в базе данных
Трек 24  отсутствует в базе данных
Ни одного трека нет в базе AccurateRip
Конец отчёта
==== Контрольная сумма отчёта 487C6BF147A72C0E5B6B26151D8CC8CC4655F64B1860D991C2F5F99B56C123E0 ====

Отчёт auCDtect Task manager&#58;

-----------------------
DON'T MODIFY THIS FILE
-----------------------
PERFORMER: auCDtect Task Manager, ver. 1.6.0 RC1 build 1.6.0.1
Copyright (c) 2008-2010 y-soft. All rights reserved
http://y-soft.org
ANALYZER: auCDtect: CD records authenticity detector, version 0.8.2
Copyright (c) 2004 Oleg Berngardt. All rights reserved.
Copyright (c) 2004 Alexander Djourik. All rights reserved.
FILE: Трофим - Собрание сочинений.flac
  Size: 520811027 Hash: 3D2B3F5AA520D4FDE131A995C2FFA88E Accuracy: -m0
  Conclusion: CDDA 100%
  Signature: 181AA9A6436312175320EA850D486ABB57D26024

2001 - Дело № 013&#58; Александр Розенбаум&#58;

Год издания: 2001
Каталог №: ВК 214
Пpoдолжительность: 01:11:57
Tpек лист:
01. Вальс Бостон (3:39)
02. Гоп-стоп (3:00)
03. Червончики (4:08)
04. Дагомыс (4:07)
05. Ау! (4:54)
06. Утки (4:31)
07. Низкий старт (3:55)
08. Беспризорник (3:50)
09. Супчик из цветной капусты (1:50)
10. Фраер (2:28)
11. Открылась дверь (3:13)
12. Извозчик (1:44)
13. Зойка (2:50)
14. Нинка (2:18)
15. Мы идем любовь искать (3:09)
16. Скрипач Ростовский Моня (2:50)
17. Заходите к нам на огонёк (2:07)
18. Есаул молоденький (2:34)
19. Ах, эти ночи (1:14)
20. Встану поутру (1:55)
21. Свадьба (3:31)
22. Прости-прощай (3:21)
23. Ленинград-МГА (2:19)
24. Майдан (2:30)

Отчёт ЕАС&#58;

Exact Audio Copy V1.0 beta 3 from 29. August 2011
Отчёт EAC об извлечении, выполненном 4. июня 2013, 16:10
Александр Розенбаум / Собрание сочинений
Дисковод: ASUS    DRW-24B3ST   Adapter: 3  ID: 0
Режим чтения                 : Достоверность
Использование точного потока : Да
Отключение кэша аудио        : Да
Использование указателей C2  : Нет
Коррекция смещения при чтении                     : 6
Способность читать области Lead-in и Lead-out     : Нет
Заполнение пропущенных сэмплов тишиной            : Да
Удаление блоков с тишиной в начале и конце        : Нет
При вычислениях CRC использовались нулевые сэмплы : Да
Интерфейс                                         : Встроенный Win32-интерфейс для Win NT/2000
Выходной формат : Внутренние WAV-операции
Формат сэмплов  : 44.100 Гц; 16 бит; стерео
TOC извлечённого CD
     Трек |   Старт  | Длительность | Начальный сектор | Конечный сектор
    ---------------------------------------------------------------------
       1  |  0:00.00 |    3:38.44   |           0      |      16393
       2  |  3:38.44 |    3:00.25   |       16394      |      29918
       3  |  6:38.69 |    4:08.30   |       29919      |      48548
       4  | 10:47.24 |    4:06.74   |       48549      |      67072
       5  | 14:54.23 |    4:53.65   |       67073      |      89112
       6  | 19:48.13 |    4:30.61   |       89113      |     109423
       7  | 24:18.74 |    3:54.54   |      109424      |     127027
       8  | 28:13.53 |    3:49.49   |      127028      |     144251
       9  | 32:03.27 |    1:50.29   |      144252      |     152530
      10  | 33:53.56 |    2:27.41   |      152531      |     163596
      11  | 36:21.22 |    3:12.63   |      163597      |     178059
      12  | 39:34.10 |    1:43.74   |      178060      |     185858
      13  | 41:18.09 |    2:49.43   |      185859      |     198576
      14  | 44:07.52 |    2:18.00   |      198577      |     208926
      15  | 46:25.52 |    3:08.70   |      208927      |     223096
      16  | 49:34.47 |    2:50.11   |      223097      |     235857
      17  | 52:24.58 |    2:06.60   |      235858      |     245367
      18  | 54:31.43 |    2:33.70   |      245368      |     256912
      19  | 57:05.38 |    1:14.23   |      256913      |     262485
      20  | 58:19.61 |    1:55.29   |      262486      |     271139
      21  | 60:15.15 |    3:31.36   |      271140      |     287000
      22  | 63:46.51 |    3:21.07   |      287001      |     302082
      23  | 67:07.58 |    2:19.36   |      302083      |     312543
      24  | 69:27.19 |    2:29.71   |      312544      |     323789
Характеристики диапазона извлечения и сообщения об ошибках
Выбранный диапазон
     Имя файла C:\vlad victorovich\Александр Розенбаум - Собрание сочинений.wav
     Пиковый уровень 96.6 %
     Скорость извлечения 6.1 X
     Качество диапазона 99.9 %
     CRC теста 1E623061
     CRC копии 1E623061
     Копирование... OK
Ошибок не произошло
AccurateRip: сводка
Трек  1  отсутствует в базе данных
Трек  2  отсутствует в базе данных
Трек  3  отсутствует в базе данных
Трек  4  отсутствует в базе данных
Трек  5  отсутствует в базе данных
Трек  6  отсутствует в базе данных
Трек  7  отсутствует в базе данных
Трек  8  отсутствует в базе данных
Трек  9  отсутствует в базе данных
Трек 10  отсутствует в базе данных
Трек 11  отсутствует в базе данных
Трек 12  отсутствует в базе данных
Трек 13  отсутствует в базе данных
Трек 14  отсутствует в базе данных
Трек 15  отсутствует в базе данных
Трек 16  отсутствует в базе данных
Трек 17  отсутствует в базе данных
Трек 18  отсутствует в базе данных
Трек 19  отсутствует в базе данных
Трек 20  отсутствует в базе данных
Трек 21  отсутствует в базе данных
Трек 22  отсутствует в базе данных
Трек 23  отсутствует в базе данных
Трек 24  отсутствует в базе данных
Ни одного трека нет в базе AccurateRip
Конец отчёта
==== Контрольная сумма отчёта DFA6DC315CD96E873CB3D5A2B9F67B119EDEC645089522B26285EE4558FC444B ====

Отчёт auCDtect Task manager&#58;

-----------------------
DON'T MODIFY THIS FILE
-----------------------
PERFORMER: auCDtect Task Manager, ver. 1.6.0 RC1 build 1.6.0.1
Copyright (c) 2008-2010 y-soft. All rights reserved
http://y-soft.org
ANALYZER: auCDtect: CD records authenticity detector, version 0.8.2
Copyright (c) 2004 Oleg Berngardt. All rights reserved.
Copyright (c) 2004 Alexander Djourik. All rights reserved.
FILE: Александр Розенбаум - Собрание сочинений.flac
  Size: 435149156 Hash: 1356623A1482E2D147A1BF169A0B0869 Accuracy: -m0
  Conclusion: CDDA 100%
  Signature: D36BDA81DAF8783837AC42FC2A06B50EB4D70610

2002 - Дело № 015&#58; Успенская Любовь&#58;

Год издания: 2002
Каталог №: BK461
Пpoдолжительность: 01:17:39
Tpек лист:
1."Кабриолет"
2."Карусель"
3."Рябиновая настойка"
4."Прабабушка"
5."Кривые зеркала"
6."Пропади ты пропадом"
7."Банкет"
8."Мама-мамочка"
9."Гусарская рулетка"
10."Я милого узнаю по походке"
11."Батюшка"
12."Экспресс на Монте-Карло"
13."Городской шалман"
14."Колесо фортуны"
15."Люба-Любонька"
16."Любимый"
17."С неба звездочка упала"
18."Я сам по себе"
19."Зачем играешь ты со мной"
20."Пропадаю я"

Отчёт ЕАС&#58;

Exact Audio Copy V1.0 beta 1 from 15. November 2010
EAC extraction logfile from 19. February 2011, 12:21
Успенская Любовь / Дело № 015
Used drive  : PIONEER DVD-RW  DVR-216D   Adapter: 2  ID: 1
Read mode               : Secure
Utilize accurate stream : Yes
Defeat audio cache      : Yes
Make use of C2 pointers : No
Read offset correction                      : 96
Overread into Lead-In and Lead-Out          : No
Fill up missing offset samples with silence : Yes
Delete leading and trailing silent blocks   : No
Null samples used in CRC calculations       : Yes
Used interface                              : Native Win32 interface for Win NT & 2000
Used output format              : User Defined Encoder
Selected bitrate                : 1024 kBit/s
Quality                         : High
Add ID3 tag                     : No
Command line compressor         : C:\Program Files (x86)\Exact Audio Copy\FLAC\FLAC.EXE
Additional command line options : -8 -V -T "ARTIST=%a" -T "TITLE=%t" -T "ALBUM=%g" -T "DATE=%y" -T "TRACKNUMBER=%n" -T "GENRE=%m" -T "COMMENT=%e" %j--picture="%i"%j %s -o %d
TOC of the extracted CD
     Track |   Start  |  Length  | Start sector | End sector
    ---------------------------------------------------------
        1  |  0:00.00 |  3:50.44 |         0    |    17293
        2  |  3:50.44 |  4:35.70 |     17294    |    37988
        3  |  8:26.39 |  3:57.48 |     37989    |    55811
        4  | 12:24.12 |  4:13.68 |     55812    |    74854
        5  | 16:38.05 |  4:43.15 |     74855    |    96094
        6  | 21:21.20 |  4:24.28 |     96095    |   115922
        7  | 25:45.48 |  4:08.30 |    115923    |   134552
        8  | 29:54.03 |  3:35.33 |    134553    |   150710
        9  | 33:29.36 |  4:45.27 |    150711    |   172112
       10  | 38:14.63 |  3:10.39 |    172113    |   186401
       11  | 41:25.27 |  3:49.09 |    186402    |   203585
       12  | 45:14.36 |  4:33.51 |    203586    |   224111
       13  | 49:48.12 |  3:20.11 |    224112    |   239122
       14  | 53:08.23 |  2:59.61 |    239123    |   252608
       15  | 56:08.09 |  3:24.51 |    252609    |   267959
       16  | 59:32.60 |  3:19.28 |    267960    |   282912
       17  | 62:52.13 |  3:00.47 |    282913    |   296459
       18  | 65:52.60 |  3:29.01 |    296460    |   312135
       19  | 69:21.61 |  4:53.74 |    312136    |   334184
       20  | 74:15.60 |  3:23.08 |    334185    |   349417
Range status and errors
Selected range
     Filename H:\Новая папка (2)\Дело № 015_Успенская Любовь_2002.wav
     Peak level 100.0 %
     Extraction speed 0.3 X
     Range quality 100.0 %
     Test CRC 76D52789
     Copy CRC 76D52789
     Copy OK
No errors occurred
AccurateRip summary
Track  1  not present in database
Track  2  not present in database
Track  3  not present in database
Track  4  not present in database
Track  5  not present in database
Track  6  not present in database
Track  7  not present in database
Track  8  not present in database
Track  9  not present in database
Track 10  not present in database
Track 11  not present in database
Track 12  not present in database
Track 13  not present in database
Track 14  not present in database
Track 15  not present in database
Track 16  not present in database
Track 17  not present in database
Track 18  not present in database
Track 19  not present in database
Track 20  not present in database
None of the tracks are present in the AccurateRip database
End of status report
==== Log checksum 85E3EBFEE4D64DD80282E42C96DFFD6C75574ABE7D2E7CF5013A1D99008EFAEC ====

Отчёт auCDtect Task manager&#58;

-----------------------
DON'T MODIFY THIS FILE
-----------------------
PERFORMER: auCDtect Task Manager, ver. 1.6.0 RC1 build 1.6.0.1
Copyright (c) 2008-2010 y-soft. All rights reserved
http://y-soft.org
ANALYZER: auCDtect: CD records authenticity detector, version 0.8.2
Copyright (c) 2004 Oleg Berngardt. All rights reserved.
Copyright (c) 2004 Alexander Djourik. All rights reserved.
FILE: Дело № 015_Успенская Любовь_2002.flac
  Size: 563522770 Hash: 553F42E14C03297FC16231A065F7CF20 Accuracy: -m0
  Conclusion: CDDA 100%
  Signature: 99C5A8074FE0716D2F2EAC6EB51EF13B4203FB93

2001 - Дело № 020&#58; Андрей Климнюк&#58;

Год издания: 2001
Каталог №: BK 288
Пpoдолжительность: 01:13:40
Tpек лист:
01 "Базара нет"
02 "Вор-карманник"
03 "Партаки-2"
04 "Долго маялся"
05 "Малолетка"
06 "Посадочка"
07 "Апрель"
08 "Дорога домой"
09 "Девочка из Сочи"
10 "Встреча"
11 "Понедельник"
12 "Дембеля"
13 "В зоне"
14 "Дубачка"

Отчёт ЕАС&#58;

Exact Audio Copy V0.99 prebeta 3 from 28. July 2007
Отчёт EAC об извлечении, выполненном 26. февраля 2010, 21:27
КЛИМНЮК АНДРЕЙ / "СОБРАНИЕ СОЧИНЕНИЙ. ДЕЛО № 020"
Дисковод: Optiarc DVD RW AD-7190A   Adapter: 0  ID: 0
Режим чтения                 : Достоверность
Использование точного потока : Да
Отключение кэша аудио        : Да
Использование указателей C2  : Нет
Коррекция смещения при чтении                     : 6
Способность читать области Lead-in и Lead-out     : Нет
Заполнение пропущенных сэмплов тишиной            : Да
Удаление блоков с тишиной в начале и конце        : Нет
При вычислениях CRC использовались нулевые сэмплы : Да
Интерфейс                                         : Встроенный Win32-интерфейс для Win NT/2000
Выходной формат : Внутренние WAV-операции
Формат сэмплов  : 44.100 Гц; 16 бит; стерео
TOC извлечённого CD
     Трек |   Старт  | Длительность | Начальный сектор | Конечный сектор
    ---------------------------------------------------------------------
       1  |  0:00.00 |    3:37.05   |           0      |      16279
       2  |  3:37.05 |    3:49.65   |       16280      |      33519
       3  |  7:26.70 |    2:57.69   |       33520      |      46863
       4  | 10:24.64 |    4:02.07   |       46864      |      65020
       5  | 14:26.71 |    3:30.61   |       65021      |      80831
       6  | 17:57.57 |    3:25.02   |       80832      |      96208
       7  | 21:22.59 |    3:19.66   |       96209      |     111199
       8  | 24:42.50 |    3:37.67   |      111200      |     127541
       9  | 28:20.42 |    3:14.07   |      127542      |     142098
      10  | 31:34.49 |    4:16.46   |      142099      |     161344
      11  | 35:51.20 |    4:05.16   |      161345      |     179735
      12  | 39:56.36 |    4:36.00   |      179736      |     200435
      13  | 44:32.36 |    4:38.48   |      200436      |     221333
      14  | 49:11.09 |    3:31.03   |      221334      |     237161
      15  | 52:42.12 |    3:37.06   |      237162      |     253442
      16  | 56:19.18 |    3:42.41   |      253443      |     270133
      17  | 60:01.59 |    3:02.52   |      270134      |     283835
      18  | 63:04.36 |    3:27.70   |      283836      |     299430
      19  | 66:32.31 |    2:57.11   |      299431      |     312716
      20  | 69:29.42 |    4:09.71   |      312717      |     331462
Характеристики диапазона извлечения и сообщения об ошибках
Выбранный диапазон
     Имя файла E:\КЛИМНЮК АНДРЕЙ © [Дискография]\2001 - Собрание сочинений [Дело № 020]\КЛИМНЮК АНДРЕЙ -  СОБРАНИЕ СОЧИНЕНИЙ. ДЕЛО № 020.wav
     Пиковый уровень 96.6 %
     Качество диапазона 100.0 %
     CRC теста EC00BF5C
     CRC копии EC00BF5C
     Копирование... OK
Ошибок не произошло
AccurateRip: сводка
Трек  1  нет в базе данных
Трек  2  нет в базе данных
Трек  3  нет в базе данных
Трек  4  нет в базе данных
Трек  5  нет в базе данных
Трек  6  нет в базе данных
Трек  7  нет в базе данных
Трек  8  нет в базе данных
Трек  9  нет в базе данных
Трек 10  нет в базе данных
Трек 11  нет в базе данных
Трек 12  нет в базе данных
Трек 13  нет в базе данных
Трек 14  нет в базе данных
Трек 15  нет в базе данных
Трек 16  нет в базе данных
Трек 17  нет в базе данных
Трек 18  нет в базе данных
Трек 19  нет в базе данных
Трек 20  нет в базе данных
Ни одного трека нет в базе AccurateRip
Конец отчёта

Отчёт auCDtect Task manager&#58;

-----------------------
DON'T MODIFY THIS FILE
-----------------------
PERFORMER: auCDtect Task Manager, ver. 1.6.0 RC1 build 1.6.0.1
Copyright (c) 2008-2010 y-soft. All rights reserved
http://y-soft.org
ANALYZER: auCDtect: CD records authenticity detector, version 0.8.2
Copyright (c) 2004 Oleg Berngardt. All rights reserved.
Copyright (c) 2004 Alexander Djourik. All rights reserved.
FILE: Дело № 020_Андрей Климнюк_2001.flac
  Size: 609656933 Hash: 4D547F391266C13FDD74800569D1277D Accuracy: -m0
  Conclusion: CDDA 100%
  Signature: CDAB614BAF1F23E58D7D358309245637A332F51A

Создавать темы 16-Дек-2014 21:29 (спустя 1 час 9 минут)

2001 - Дело № 022&#58; Слава Бобков&#58;

Год издания: 2001
Каталог №: BK294
Пpoдолжительность: 01:11:41
Tpек лист:
01. Такси-зелёный огонек (3:44)
02. Тики-Так (4:46)
03. Жанка-горожанка (3:35)
04. Добрый вечер, господа! (2:32)
05. В кабаке (3:27)
06. Девчонка уезжает за границу (3:55)
07. Беда (2:51)
08. Липкие пальчики (3:10)
09. Короче,ша! (4:45)
10. Пан или пропал (3:31)
11. Вы меня спросили!!! - Отвечаю... (2:23)
12. Мои песни (2:42)
13. Полюбила Вера милиционера (2:48)
14. Поработаем-отдохнём! (3:52)
15. Про Ваню (2:22)
16. Чулочки (3:31)
17. Покупаю сигареты (Рынок) (2:03)
18. От плеча и до плеча (Дорога) (2:05)
19. Юлькин юбилей (3:47)
20. Дальнобойная (3:48)
21. Ништяк, браток! (2:05)
22. Шишки да иголки (4:00)

Отчёт ЕАС&#58;

Exact Audio Copy V1.0 beta 3 from 29. August 2011
Отчёт EAC об извлечении, выполненном 3. мая 2012, 18:00
Слава Бобков / Дело № 022
Дисковод: ASUS    DRW-24B3ST   Adapter: 1  ID: 1
Режим чтения                 : Достоверность
Использование точного потока : Да
Отключение кэша аудио        : Да
Использование указателей C2  : Нет
Коррекция смещения при чтении                     : 6
Способность читать области Lead-in и Lead-out     : Нет
Заполнение пропущенных сэмплов тишиной            : Да
Удаление блоков с тишиной в начале и конце        : Нет
При вычислениях CRC использовались нулевые сэмплы : Да
Интерфейс                                         : Встроенный Win32-интерфейс для Win NT/2000
Выходной формат : Внутренние WAV-операции
Формат сэмплов  : 44.100 Гц; 16 бит; стерео
TOC извлечённого CD
     Трек |   Старт  | Длительность | Начальный сектор | Конечный сектор
    ---------------------------------------------------------------------
       1  |  0:00.00 |    3:44.19   |           0      |      16818
       2  |  3:44.19 |    4:45.60   |       16819      |      38253
       3  |  8:30.04 |    3:35.27   |       38254      |      54405
       4  | 12:05.31 |    2:32.36   |       54406      |      65841
       5  | 14:37.67 |    3:26.44   |       65842      |      81335
       6  | 18:04.36 |    3:55.07   |       81336      |      98967
       7  | 21:59.43 |    2:50.73   |       98968      |     111790
       8  | 24:50.41 |    3:10.06   |      111791      |     126046
       9  | 28:00.47 |    4:45.07   |      126047      |     147428
      10  | 32:45.54 |    3:30.54   |      147429      |     163232
      11  | 36:16.33 |    2:23.08   |      163233      |     173965
      12  | 38:39.41 |    2:41.46   |      173966      |     186086
      13  | 41:21.12 |    2:48.35   |      186087      |     198721
      14  | 44:09.47 |    3:51.50   |      198722      |     216096
      15  | 48:01.22 |    2:21.48   |      216097      |     226719
      16  | 50:22.70 |    3:30.55   |      226720      |     242524
      17  | 53:53.50 |    2:02.54   |      242525      |     251728
      18  | 55:56.29 |    2:05.29   |      251729      |     261132
      19  | 58:01.58 |    3:46.74   |      261133      |     278156
      20  | 61:48.57 |    3:47.54   |      278157      |     295235
      21  | 65:36.36 |    2:04.73   |      295236      |     304608
      22  | 67:41.34 |    3:59.52   |      304609      |     322585
Характеристики диапазона извлечения и сообщения об ошибках
Выбранный диапазон
     Имя файла C:\Слава Бобков - Дело № 022\Слава Бобков - Дело № 022.wav
     Пиковый уровень 96.6 %
     Скорость извлечения 3.7 X
     Качество диапазона 100.0 %
     CRC теста D3227E2A
     CRC копии D3227E2A
     Копирование... OK
Ошибок не произошло
AccurateRip: сводка
Трек  1  отсутствует в базе данных
Трек  2  отсутствует в базе данных
Трек  3  отсутствует в базе данных
Трек  4  отсутствует в базе данных
Трек  5  отсутствует в базе данных
Трек  6  отсутствует в базе данных
Трек  7  отсутствует в базе данных
Трек  8  отсутствует в базе данных
Трек  9  отсутствует в базе данных
Трек 10  отсутствует в базе данных
Трек 11  отсутствует в базе данных
Трек 12  отсутствует в базе данных
Трек 13  отсутствует в базе данных
Трек 14  отсутствует в базе данных
Трек 15  отсутствует в базе данных
Трек 16  отсутствует в базе данных
Трек 17  отсутствует в базе данных
Трек 18  отсутствует в базе данных
Трек 19  отсутствует в базе данных
Трек 20  отсутствует в базе данных
Трек 21  отсутствует в базе данных
Трек 22  отсутствует в базе данных
Ни одного трека нет в базе AccurateRip
Конец отчёта
==== Контрольная сумма отчёта 75E3233CB9F9753A71B1E125F0EF8943EFD1EC6FC373E31D5E69903949E468E5 ====

Отчёт auCDtect Task manager&#58;

-----------------------
DON'T MODIFY THIS FILE
-----------------------
PERFORMER: auCDtect Task Manager, ver. 1.6.0 RC1 build 1.6.0.1
Copyright (c) 2008-2010 y-soft. All rights reserved
http://y-soft.org
ANALYZER: auCDtect: CD records authenticity detector, version 0.8.2
Copyright (c) 2004 Oleg Berngardt. All rights reserved.
Copyright (c) 2004 Alexander Djourik. All rights reserved.
FILE: Слава Бобков - Дело № 022.flac
  Size: 544949731 Hash: 7C9245AFB492FA0F55CB259D9F4A09A1 Accuracy: -m0
  Conclusion: CDDA 100%
  Signature: FFF436DEF50109D11BA9119A262DB2BB42700CA2

2001 - Дело № 024&#58; Папа Радж&#58;

Год издания: 2001
Каталог №: BK291
Пpoдолжительность: 01:08:50
Tpек лист:
01. Я был мальчишкой
02. Мадам, постойте!
03. Я родился на Урале
04. Казино
05. Амнистия
06. Зимний вечер
07. Есть подружка у меня
08. Тапер
09. Эй, жиган!
10. А мне плевать!
11. В ментовке
12. За мировую
13. Нары эти грязные...
14. Я с детства шаловливым был
15. Москвич
16. Гуляй, шпана
17. Воры-хулиганы
18. Столыпинский вагончик

Отчёт ЕАС&#58;

Exact Audio Copy V1.0 beta 3 from 29. August 2011
Отчёт EAC об извлечении, выполненном 8. сентября 2012, 20:42
Папа Радж / Собрание сочинений. Дело №024
Дисковод: TEAC    DV-W520GM   Adapter: 4  ID: 0
Режим чтения                 : Достоверность
Использование точного потока : Да
Отключение кэша аудио        : Да
Использование указателей C2  : Нет
Коррекция смещения при чтении                     : 6
Способность читать области Lead-in и Lead-out     : Нет
Заполнение пропущенных сэмплов тишиной            : Да
Удаление блоков с тишиной в начале и конце        : Нет
При вычислениях CRC использовались нулевые сэмплы : Да
Интерфейс                                         : Встроенный Win32-интерфейс для Win NT/2000
Выходной формат : Внутренние WAV-операции
Формат сэмплов  : 44.100 Гц; 16 бит; стерео
TOC извлечённого CD
     Трек |   Старт  | Длительность | Начальный сектор | Конечный сектор
    ---------------------------------------------------------------------
       1  |  0:00.00 |    2:52.57   |           0      |      12956
       2  |  2:52.57 |    3:30.73   |       12957      |      28779
       3  |  6:23.55 |    3:13.54   |       28780      |      43308
       4  |  9:37.34 |    4:12.25   |       43309      |      62233
       5  | 13:49.59 |    2:46.08   |       62234      |      74691
       6  | 16:35.67 |    4:48.54   |       74692      |      96345
       7  | 21:24.46 |    3:48.11   |       96346      |     113456
       8  | 25:12.57 |    3:24.17   |      113457      |     128773
       9  | 28:36.74 |    3:19.11   |      128774      |     143709
      10  | 31:56.10 |    2:33.15   |      143710      |     155199
      11  | 34:29.25 |    3:49.15   |      155200      |     172389
      12  | 38:18.40 |    4:33.48   |      172390      |     192912
      13  | 42:52.13 |    3:43.46   |      192913      |     209683
      14  | 46:35.59 |    4:14.66   |      209684      |     228799
      15  | 50:50.50 |    4:38.73   |      228800      |     249722
      16  | 55:29.48 |    5:07.55   |      249723      |     272802
      17  | 60:37.28 |    4:34.29   |      272803      |     293381
      18  | 65:11.57 |    3:38.39   |      293382      |     309770
Характеристики диапазона извлечения и сообщения об ошибках
Выбранный диапазон
     Имя файла T:\СБОРНИКИ И СЕРИИ\СЕРИЯ «Собрание сочинений. Дело №», серия (2001)\[Дело № 024] Папа Радж - Собрание сочинений\Папа Радж - Собрание сочинений. Дело №024.wav
     Подозрительная позиция 0:57:45
     Подозрительная позиция 0:59:21
     Подозрительная позиция 1:00:07
     Подозрительная позиция 1:01:25
     Подозрительная позиция 1:02:00
     Подозрительная позиция 1:03:14
     Подозрительная позиция 1:03:39
     Подозрительная позиция 1:03:53
     Подозрительная позиция 1:04:23
     Подозрительная позиция 1:04:30
     Подозрительная позиция 1:04:45
     Подозрительная позиция 1:04:54
     Подозрительная позиция 1:05:38
     Подозрительная позиция 1:06:22
     Подозрительная позиция 1:06:37
     Подозрительная позиция 1:06:49
     Подозрительная позиция 1:06:52
     Подозрительная позиция 1:06:54
     Подозрительная позиция 1:07:02
     Подозрительная позиция 1:07:12
     Подозрительная позиция 1:07:27
     Подозрительная позиция 1:07:32
     Подозрительная позиция 1:07:41
     Подозрительная позиция 1:07:47
     Подозрительная позиция 1:07:54 - 1:07:55
     Подозрительная позиция 1:07:57
     Подозрительная позиция 1:08:20
     Подозрительная позиция 1:08:28
     Подозрительная позиция 1:08:38
     Подозрительная позиция 1:08:40
     Пиковый уровень 100.0 %
     Скорость извлечения 0.5 X
     Качество диапазона 99.0 %
     CRC теста 634B946B
     CRC копии FB626827
     Копирование завершено
Были ошибки
AccurateRip: сводка
Трек  1  отсутствует в базе данных
Трек  2  отсутствует в базе данных
Трек  3  отсутствует в базе данных
Трек  4  отсутствует в базе данных
Трек  5  отсутствует в базе данных
Трек  6  отсутствует в базе данных
Трек  7  отсутствует в базе данных
Трек  8  отсутствует в базе данных
Трек  9  отсутствует в базе данных
Трек 10  отсутствует в базе данных
Трек 11  отсутствует в базе данных
Трек 12  отсутствует в базе данных
Трек 13  отсутствует в базе данных
Трек 14  отсутствует в базе данных
Трек 15  отсутствует в базе данных
Трек 16  отсутствует в базе данных
Трек 17  отсутствует в базе данных
Трек 18  отсутствует в базе данных
Ни одного трека нет в базе AccurateRip
Конец отчёта
==== Контрольная сумма отчёта 412341377461F7746C61C1F30E49FD824768AD3168E3B8919DB5E34836676901 ====

Отчёт auCDtect Task manager&#58;

-----------------------
DON'T MODIFY THIS FILE
-----------------------
PERFORMER: auCDtect Task Manager, ver. 1.6.0 RC1 build 1.6.0.1
Copyright (c) 2008-2010 y-soft. All rights reserved
http://y-soft.org
ANALYZER: auCDtect: CD records authenticity detector, version 0.8.2
Copyright (c) 2004 Oleg Berngardt. All rights reserved.
Copyright (c) 2004 Alexander Djourik. All rights reserved.
FILE: Папа Радж - Собрание сочинений. Дело №024.flac
  Size: 483336495 Hash: D16C94D7F4F39A400FBA8B405E40D912 Accuracy: -m0
  Conclusion: CDDA 100%
  Signature: E017C144914789A253D18512A0034F104A0D0CFF

2001 - Дело № 031&#58; Евгений Кемеровский&#58;

Год издания: 2001
Каталог №: BK337
Пpoдолжительность: 01:19:44
Tpек лист:
1."Роща Марьина"
2."Над сибирской тайгою"
3."Золотая пора"
4."Не вспоминай меня"
5."Милая"
6."Мария"
7."Ночное море"
8."Я буду ждать тебя"
9."Я к тебе никогда не вернусь"
10."Русская рулетка"
11."Старый двор"
12."А люди говорят..."
13."Столыпинский вагон"
14."Хозяин"
15."Лиха беда начало"
16."Чаек"
17."Я уже не люблю"
18."Я вернусь"
19."Уходя оглянись"
20."Давай на посошок"
21."Малява"
22."Еще не осень"

Отчёт ЕАС&#58;

Exact Audio Copy V1.0 beta 1 from 15. November 2010
EAC extraction logfile from 19. February 2011, 11:46
Евгений Кемеровский / Дело № 031
Used drive  : PIONEER DVD-RW  DVR-216D   Adapter: 2  ID: 1
Read mode               : Secure
Utilize accurate stream : Yes
Defeat audio cache      : Yes
Make use of C2 pointers : No
Read offset correction                      : 96
Overread into Lead-In and Lead-Out          : No
Fill up missing offset samples with silence : Yes
Delete leading and trailing silent blocks   : No
Null samples used in CRC calculations       : Yes
Used interface                              : Native Win32 interface for Win NT & 2000
Used output format              : User Defined Encoder
Selected bitrate                : 1024 kBit/s
Quality                         : High
Add ID3 tag                     : No
Command line compressor         : C:\Program Files (x86)\Exact Audio Copy\FLAC\FLAC.EXE
Additional command line options : -8 -V -T "ARTIST=%a" -T "TITLE=%t" -T "ALBUM=%g" -T "DATE=%y" -T "TRACKNUMBER=%n" -T "GENRE=%m" -T "COMMENT=%e" %j--picture="%i"%j %s -o %d
TOC of the extracted CD
     Track |   Start  |  Length  | Start sector | End sector
    ---------------------------------------------------------
        1  |  0:00.00 |  2:14.74 |         0    |    10123
        2  |  2:14.74 |  3:22.68 |     10124    |    25341
        3  |  5:37.67 |  4:20.68 |     25342    |    44909
        4  |  9:58.60 |  4:14.30 |     44910    |    63989
        5  | 14:13.15 |  3:23.13 |     63990    |    79227
        6  | 17:36.28 |  3:31.45 |     79228    |    95097
        7  | 21:07.73 |  3:36.34 |     95098    |   111331
        8  | 24:44.32 |  4:41.22 |    111332    |   132428
        9  | 29:25.54 |  3:21.40 |    132429    |   147543
       10  | 32:47.19 |  3:48.56 |    147544    |   164699
       11  | 36:36.00 |  3:10.18 |    164700    |   178967
       12  | 39:46.18 |  3:21.60 |    178968    |   194102
       13  | 43:08.03 |  3:27.13 |    194103    |   209640
       14  | 46:35.16 |  2:56.41 |    209641    |   222881
       15  | 49:31.57 |  3:34.64 |    222882    |   238995
       16  | 53:06.46 |  2:37.65 |    238996    |   250835
       17  | 55:44.36 |  4:46.70 |    250836    |   272355
       18  | 60:31.31 |  3:05.66 |    272356    |   286296
       19  | 63:37.22 |  4:22.60 |    286297    |   306006
       20  | 68:00.07 |  3:26.13 |    306007    |   321469
       21  | 71:26.20 |  4:12.32 |    321470    |   340401
       22  | 75:38.52 |  4:05.03 |    340402    |   358779
Range status and errors
Selected range
     Filename H:\Новая папка (2)\Евгений Кемеровский - Дело № 031.wav
     Peak level 96.6 %
     Extraction speed 0.4 X
     Range quality 99.9 %
     Test CRC 8C69AB44
     Copy CRC 8C69AB44
     Copy OK
No errors occurred
AccurateRip summary
Track  1  not present in database
Track  2  not present in database
Track  3  not present in database
Track  4  not present in database
Track  5  not present in database
Track  6  not present in database
Track  7  not present in database
Track  8  not present in database
Track  9  not present in database
Track 10  not present in database
Track 11  not present in database
Track 12  not present in database
Track 13  not present in database
Track 14  not present in database
Track 15  not present in database
Track 16  not present in database
Track 17  not present in database
Track 18  not present in database
Track 19  not present in database
Track 20  not present in database
Track 21  not present in database
Track 22  not present in database
None of the tracks are present in the AccurateRip database
End of status report
==== Log checksum 5AAA18CBD4E212ACC55746D50248B53444D9AEE2111DA0DE59F2320421A80207 ====

Отчёт auCDtect Task manager&#58;

-----------------------
DON'T MODIFY THIS FILE
-----------------------
PERFORMER: auCDtect Task Manager, ver. 1.6.0 RC1 build 1.6.0.1
Copyright (c) 2008-2010 y-soft. All rights reserved
http://y-soft.org
ANALYZER: auCDtect: CD records authenticity detector, version 0.8.2
Copyright (c) 2004 Oleg Berngardt. All rights reserved.
Copyright (c) 2004 Alexander Djourik. All rights reserved.
FILE: Дело № 031_Евгений Кемеровский_2001.flac
  Size: 568148126 Hash: 111DAE7F2BF77C6305A5852244DBFB8B Accuracy: -m0
  Conclusion: CDDA 100%
  Signature: C15CCB308D8D17995335C4C2DE54E46F291A81AF

2001 - Дело № 034&#58; Петлюра&#58;

Год издания: 2001
Каталог №: BK636
Пpoдолжительность: 01:10:24
Tpек лист:
01 "Печальный парень"
02 "Малолетка"
03 "Платье белое"
04 "Ты одна стоишь у клёна"
05 "Воровская"
06 "Гитара семиструнная"
07 "Исповедь вора"
08 "Я иду осторожно"
09 "Хочешь, я прибегу (remix)"
10 "Конопля"
11 "Не судьба"
12 "Люблю тебя"
13 "Блудница"
14 "Их не зовут"
15 "Бродяга"
16 "В тихом ресторане"
17 "Моя любимая (remix)"
18 "Пацаны (remix)"
19 "Скорый поезд"

Отчёт ЕАС&#58;

Exact Audio Copy V0.99 prebeta 4 from 23. January 2008
Отчёт EAC об извлечении, выполненном 1. октября 2010, 12:51
Петлюра / Собрание сочинений
Дисковод: PIONEER DVD-RW  DVR-111D   Adapter: 1  ID: 0
Режим чтения                 : Достоверность
Использование точного потока : Да
Отключение кэша аудио        : Да
Использование указателей C2  : Нет
Коррекция смещения при чтении                     : 48
Способность читать области Lead-in и Lead-out     : Нет
Заполнение пропущенных сэмплов тишиной            : Да
Удаление блоков с тишиной в начале и конце        : Нет
При вычислениях CRC использовались нулевые сэмплы : Да
Интерфейс                                         : Встроенный Win32-интерфейс для Win NT/2000
Выходной формат : Внутренние WAV-операции
Формат сэмплов  : 44.100 Гц; 16 бит; стерео
TOC извлечённого CD
     Трек |   Старт  | Длительность | Начальный сектор | Конечный сектор
    ---------------------------------------------------------------------
       1  |  0:00.00 |    3:26.46   |           0      |      15495
       2  |  3:26.46 |    3:40.61   |       15496      |      32056
       3  |  7:07.32 |    5:12.26   |       32057      |      55482
       4  | 12:19.58 |    4:28.12   |       55483      |      75594
       5  | 16:47.70 |    3:55.29   |       75595      |      93248
       6  | 20:43.24 |    2:57.22   |       93249      |     106545
       7  | 23:40.46 |    3:27.61   |      106546      |     122131
       8  | 27:08.32 |    4:19.28   |      122132      |     141584
       9  | 31:27.60 |    3:54.33   |      141585      |     159167
      10  | 35:22.18 |    4:16.10   |      159168      |     178377
      11  | 39:38.28 |    2:34.26   |      178378      |     189953
      12  | 42:12.54 |    3:35.39   |      189954      |     206117
      13  | 45:48.18 |    3:30.50   |      206118      |     221917
      14  | 49:18.68 |    3:23.13   |      221918      |     237155
      15  | 52:42.06 |    2:42.16   |      237156      |     249321
      16  | 55:24.22 |    4:39.51   |      249322      |     270297
      17  | 60:03.73 |    3:34.72   |      270298      |     286419
      18  | 63:38.70 |    3:27.70   |      286420      |     302014
      19  | 67:06.65 |    3:17.27   |      302015      |     316816
      20  | 72:56.17 |    4:55.54   |      328217      |     350395
Характеристики диапазона извлечения и сообщения об ошибках
Выбранный диапазон
     Имя файла C:\Documents and Settings\Странник\Мои документы\Петлюра - Собрание сочинений.wav
     Пиковый уровень 96.6 %
     Качество диапазона 100.0 %
     CRC теста 1538B41F
     CRC копии 1538B41F
     Копирование... OK
Ошибок не произошло
AccurateRip: сводка
Трек  1  точное извлечение (доверие 1)  [3EDDF381]
Трек  2  точное извлечение (доверие 1)  [3636B206]
Трек  3  точное извлечение (доверие 1)  [43C60957]
Трек  4  точное извлечение (доверие 1)  [6B961363]
Трек  5  точное извлечение (доверие 1)  [8925848D]
Трек  6  точное извлечение (доверие 1)  [510424C7]
Трек  7  точное извлечение (доверие 1)  [6E5C6844]
Трек  8  точное извлечение (доверие 1)  [6E63AFC5]
Трек  9  точное извлечение (доверие 1)  [039EC0A3]
Трек 10  точное извлечение (доверие 1)  [9DD363B3]
Трек 11  точное извлечение (доверие 1)  [3F99A343]
Трек 12  точное извлечение (доверие 1)  [F393A7E5]
Трек 13  точное извлечение (доверие 1)  [6299CB6A]
Трек 14  точное извлечение (доверие 1)  [7C3EC99F]
Трек 15  точное извлечение (доверие 1)  [DCFF5ED4]
Трек 16  точное извлечение (доверие 1)  [8DD17431]
Трек 17  точное извлечение (доверие 1)  [20750D8F]
Трек 18  точное извлечение (доверие 1)  [390BA319]
Трек 19  точное извлечение (доверие 1)  [92770B10]
Все треки извлечены точно
Конец отчёта

Отчёт auCDtect Task manager&#58;

-----------------------
DON'T MODIFY THIS FILE
-----------------------
PERFORMER: auCDtect Task Manager, ver. 1.6.0 RC1 build 1.6.0.1
Copyright (c) 2008-2010 y-soft. All rights reserved
http://y-soft.org
ANALYZER: auCDtect: CD records authenticity detector, version 0.8.2
Copyright (c) 2004 Oleg Berngardt. All rights reserved.
Copyright (c) 2004 Alexander Djourik. All rights reserved.
FILE: Дело № 034_Петлюра_2001.flac
  Size: 512495837 Hash: 2C4BE7A44530568725A77B15A8B70B86 Accuracy: -m0
  Conclusion: CDDA 100%
  Signature: 17809129E65D1C5F76ACB1BFE2F5256322440365

2003 - Дело № 037&#58; Александр Дюмин&#58;

Год издания: 2003
Каталог №: S1841
Пpoдолжительность: 1:19:48
Tpек лист:
01. Шальная
02. Тук-тук-тук
03. Люберцы
04. Времечко
05. Шпана
06. Пацаны
07. Сочи - Магадан
08. Каторжанская
09. Тюрьма
10. Танька
11. Босяк
12. Урка
13. Хуторок
14. Так и покатил я
15. Судьбинушка
16. Неволя
17. Сказочная беседка
18. Одна у меня
19. Валюха
20. Суета-муета
21. Игра от любви
22. Наша жизнь
23. Джанкойский этап
24. Болюшкаx

Отчёт ЕАС&#58;

Exact Audio Copy V1.0 beta 3 from 29. August 2011
Отчёт EAC об извлечении, выполненном 29. декабря 2012, 4:15
Александр Дюмин / Собрание сочинений. Дело №037 (обновленный)
Дисковод: TEAC    DV-W520GM   Adapter: 4  ID: 0
Режим чтения                 : Достоверность
Использование точного потока : Да
Отключение кэша аудио        : Да
Использование указателей C2  : Нет
Коррекция смещения при чтении                     : 6
Способность читать области Lead-in и Lead-out     : Нет
Заполнение пропущенных сэмплов тишиной            : Да
Удаление блоков с тишиной в начале и конце        : Нет
При вычислениях CRC использовались нулевые сэмплы : Да
Интерфейс                                         : Встроенный Win32-интерфейс для Win NT/2000
Выходной формат : Внутренние WAV-операции
Формат сэмплов  : 44.100 Гц; 16 бит; стерео
TOC извлечённого CD
     Трек |   Старт  | Длительность | Начальный сектор | Конечный сектор
    ---------------------------------------------------------------------
       1  |  0:00.00 |    2:40.38   |           0      |      12037
       2  |  2:40.38 |    2:51.14   |       12038      |      24876
       3  |  5:31.52 |    3:10.58   |       24877      |      39184
       4  |  8:42.35 |    2:44.09   |       39185      |      51493
       5  | 11:26.44 |    3:21.34   |       51494      |      66602
       6  | 14:48.03 |    3:45.05   |       66603      |      83482
       7  | 18:33.08 |    2:59.08   |       83483      |      96915
       8  | 21:32.16 |    3:15.44   |       96916      |     111584
       9  | 24:47.60 |    2:27.56   |      111585      |     122665
      10  | 27:15.41 |    3:16.17   |      122666      |     137382
      11  | 30:31.58 |    2:57.30   |      137383      |     150687
      12  | 33:29.13 |    4:45.14   |      150688      |     172076
      13  | 38:14.27 |    2:48.37   |      172077      |     184713
      14  | 41:02.64 |    3:23.08   |      184714      |     199946
      15  | 44:25.72 |    4:05.57   |      199947      |     218378
      16  | 48:31.54 |    2:53.33   |      218379      |     231386
      17  | 51:25.12 |    3:21.57   |      231387      |     246518
      18  | 54:46.69 |    3:15.41   |      246519      |     261184
      19  | 58:02.35 |    3:17.16   |      261185      |     275975
      20  | 61:19.51 |    3:42.74   |      275976      |     292699
      21  | 65:02.50 |    3:18.50   |      292700      |     307599
      22  | 68:21.25 |    3:11.42   |      307600      |     321966
      23  | 71:32.67 |    4:37.38   |      321967      |     342779
      24  | 76:10.30 |    3:37.54   |      342780      |     359108
Характеристики диапазона извлечения и сообщения об ошибках
Выбранный диапазон
     Имя файла Z:\СБОРНИКИ И СЕРИИ\СЕРИЯ «Собрание сочинений. Дело №», серия (2001)\[Дело № 037 (обновленный)] Александр Дюмин - Собрание сочинений\Александр Дюмин - Собрание сочинений. Дело №037 (обновленный).wav
     Пиковый уровень 100.0 %
     Скорость извлечения 8.6 X
     Качество диапазона 99.9 %
     CRC теста CDDF3317
     CRC копии CDDF3317
     Копирование... OK
Ошибок не произошло
AccurateRip: сводка
Трек  1  отсутствует в базе данных
Трек  2  отсутствует в базе данных
Трек  3  отсутствует в базе данных
Трек  4  отсутствует в базе данных
Трек  5  отсутствует в базе данных
Трек  6  отсутствует в базе данных
Трек  7  отсутствует в базе данных
Трек  8  отсутствует в базе данных
Трек  9  отсутствует в базе данных
Трек 10  отсутствует в базе данных
Трек 11  отсутствует в базе данных
Трек 12  отсутствует в базе данных
Трек 13  отсутствует в базе данных
Трек 14  отсутствует в базе данных
Трек 15  отсутствует в базе данных
Трек 16  отсутствует в базе данных
Трек 17  отсутствует в базе данных
Трек 18  отсутствует в базе данных
Трек 19  отсутствует в базе данных
Трек 20  отсутствует в базе данных
Трек 21  отсутствует в базе данных
Трек 22  отсутствует в базе данных
Трек 23  отсутствует в базе данных
Трек 24  отсутствует в базе данных
Ни одного трека нет в базе AccurateRip
Конец отчёта
==== Контрольная сумма отчёта 0AD46ADB8C5DEADA89BD40464D42E29D6F978F418B147E1F0F2FAB4A0F73BE8B ====

Отчёт auCDtect Task manager&#58;

-----------------------
DON'T MODIFY THIS FILE
-----------------------
PERFORMER: auCDtect Task Manager, ver. 1.6.0 RC1 build 1.6.0.1
Copyright (c) 2008-2010 y-soft. All rights reserved
http://y-soft.org
ANALYZER: auCDtect: CD records authenticity detector, version 0.8.2
Copyright (c) 2004 Oleg Berngardt. All rights reserved.
Copyright (c) 2004 Alexander Djourik. All rights reserved.
FILE: Александр Дюмин - Собрание сочинений. Дело №037 (обновленный).flac
  Size: 591822312 Hash: E11375A5C347198B415786C479BA9C08 Accuracy: -m0
  Conclusion: CDDA 100%
  Signature: 75C903F41E1FECE31967BD42F95ADDEB633D4F0B

2003 - Дело № 037&#58; Анатолий Днепров&#58;

Год издания: 2003
Каталог №: S1738
Пpoдолжительность: 01:19:51
Tpек лист:
01. Никакой (3:59)
02. Одесский ералаш (3:39)
03. Памятник гранёному стакану (3:32)
04. Песенка пьяницы (3:14)
05. Ответ Вилли Токареву (3:16)
06. Из-за бугра (3:03)
07. Голый король (3:52)
08. Рюмка ностальгии (4:01)
09. А осень, как осень (3:58)
10. Стучат колёса (2:42)
11. Попурри на темы 70-х годов (3:36)
12. Звёзды на лугу (3:20)
13. Любовь уходит тихо по-английски (3:47)
14. Радовать (4:37)
15. Ах, как жаль (3:36)
16. Только помни меня (3:08)
17. Только дома (4:31)
18. Посвящение В.С.Высоцкому (3:55)
19. Прописано сердце по адресу Русь (3:46)
20. Вокзалы (3:45)
21. Я на свободе (3:44)
22. Рябина (2:52)

Отчёт ЕАС&#58;

Exact Audio Copy V1.0 beta 3 from 29. August 2011
Отчёт EAC об извлечении, выполненном 10. апреля 2013, 17:35
Анатолий Днепров / Собрание сочинений
Дисковод: ASUS    DRW-24B3ST   Adapter: 3  ID: 0
Режим чтения                 : Достоверность
Использование точного потока : Да
Отключение кэша аудио        : Да
Использование указателей C2  : Нет
Коррекция смещения при чтении                     : 6
Способность читать области Lead-in и Lead-out     : Нет
Заполнение пропущенных сэмплов тишиной            : Да
Удаление блоков с тишиной в начале и конце        : Нет
При вычислениях CRC использовались нулевые сэмплы : Да
Интерфейс                                         : Встроенный Win32-интерфейс для Win NT/2000
Выходной формат : Внутренние WAV-операции
Формат сэмплов  : 44.100 Гц; 16 бит; стерео
TOC извлечённого CD
     Трек |   Старт  | Длительность | Начальный сектор | Конечный сектор
    ---------------------------------------------------------------------
       1  |  0:00.00 |    3:59.20   |           0      |      17944
       2  |  3:59.20 |    3:39.07   |       17945      |      34376
       3  |  7:38.27 |    3:32.15   |       34377      |      50291
       4  | 11:10.42 |    3:13.59   |       50292      |      64825
       5  | 14:24.26 |    3:16.11   |       64826      |      79536
       6  | 17:40.37 |    3:02.68   |       79537      |      93254
       7  | 20:43.30 |    3:51.59   |       93255      |     110638
       8  | 24:35.14 |    4:00.70   |      110639      |     128708
       9  | 28:36.09 |    3:57.53   |      128709      |     146536
      10  | 32:33.62 |    2:42.22   |      146537      |     158708
      11  | 35:16.09 |    3:35.44   |      158709      |     174877
      12  | 38:51.53 |    3:20.19   |      174878      |     189896
      13  | 42:11.72 |    3:46.46   |      189897      |     206892
      14  | 45:58.43 |    4:36.66   |      206893      |     227658
      15  | 50:35.34 |    3:35.70   |      227659      |     243853
      16  | 54:11.29 |    3:07.41   |      243854      |     257919
      17  | 57:18.70 |    4:30.57   |      257920      |     278226
      18  | 61:49.52 |    3:54.38   |      278227      |     295814
      19  | 65:44.15 |    3:45.70   |      295815      |     312759
      20  | 69:30.10 |    3:44.52   |      312760      |     329611
      21  | 73:14.62 |    3:43.51   |      329612      |     346387
      22  | 76:58.38 |    2:52.13   |      346388      |     359300
Характеристики диапазона извлечения и сообщения об ошибках
Выбранный диапазон
     Имя файла C:\vlad victorovich\Анатолий Днепров - Собрание сочинений\Анатолий Днепров - Собрание сочинений.wav
     Пиковый уровень 96.6 %
     Скорость извлечения 6.8 X
     Качество диапазона 100.0 %
     CRC теста FA4B660E
     CRC копии FA4B660E
     Копирование... OK
Ошибок не произошло
AccurateRip: сводка
Трек  1  : извлечено точно (доверие 1)  [6FDD4ECE]  (AR v2)
Трек  2  : извлечено точно (доверие 1)  [6749CA6C]  (AR v2)
Трек  3  : извлечено точно (доверие 1)  [920B3A47]  (AR v2)
Трек  4  : извлечено точно (доверие 1)  [6F1D6785]  (AR v2)
Трек  5  : извлечено точно (доверие 1)  [EBA6DADB]  (AR v2)
Трек  6  : извлечено точно (доверие 1)  [DCADB0A0]  (AR v2)
Трек  7  : извлечено точно (доверие 1)  [6BCBB880]  (AR v2)
Трек  8  : извлечено точно (доверие 1)  [C690BE31]  (AR v2)
Трек  9  : извлечено точно (доверие 1)  [ECB28B92]  (AR v2)
Трек 10  : извлечено точно (доверие 1)  [B8BFB1F8]  (AR v2)
Трек 11  : извлечено точно (доверие 1)  [0E8A56FD]  (AR v2)
Трек 12  : извлечено точно (доверие 1)  [3D5B5580]  (AR v2)
Трек 13  : извлечено точно (доверие 1)  [48F83C63]  (AR v2)
Трек 14  : извлечено точно (доверие 1)  [678046EE]  (AR v2)
Трек 15  : извлечено точно (доверие 1)  [AFFB3348]  (AR v2)
Трек 16  : извлечено точно (доверие 1)  [6A3938D3]  (AR v2)
Трек 17  : извлечено точно (доверие 1)  [83937DF4]  (AR v2)
Трек 18  : извлечено точно (доверие 1)  [931F6639]  (AR v2)
Трек 19  : извлечено точно (доверие 1)  [069E3FD3]  (AR v2)
Трек 20  : извлечено точно (доверие 1)  [E6E0D314]  (AR v2)
Трек 21  : извлечено точно (доверие 1)  [D8F3D7F7]  (AR v2)
Трек 22  : извлечено точно (доверие 1)  [F7C1C647]  (AR v2)
Все треки извлечены точно
Конец отчёта
==== Контрольная сумма отчёта 721A5C6FE7AEE8C695F1E00FB849855F8A653ADE270A8A2DD6AF09ACFA52893B ====

Отчёт auCDtect Task manager&#58;

-----------------------
DON'T MODIFY THIS FILE
-----------------------
PERFORMER: auCDtect Task Manager, ver. 1.6.0 RC1 build 1.6.0.1
Copyright (c) 2008-2010 y-soft. All rights reserved
http://y-soft.org
ANALYZER: auCDtect: CD records authenticity detector, version 0.8.2
Copyright (c) 2004 Oleg Berngardt. All rights reserved.
Copyright (c) 2004 Alexander Djourik. All rights reserved.
FILE: Анатолий Днепров - Собрание сочинений.flac
  Size: 556530054 Hash: EA5177FAF4A7B3C66198EF1AAFDDD8FB Accuracy: -m0
  Conclusion: CDDA 100%
  Signature: 10113FF90F1638F9D00E09B660294506324722EF
Яндекс.Метрика
Рейтинг@Mail.ru