Бутырка - Хулиган (2010) [FLAC|Lossless]<Шансон>

 

Создавать темы 16-Дек-2014 20:20

-Бутырка - Хулиган (2010)- Год: 2010
Жанр: Шансон
Продолжительность: 00:53:20
Кодек: FLAC
Битрейт: Lossless
Тип рипа: image+.cue-Треклист:
01. Чечёточка (2010)
02. До Дона
03. Керосиновая лампа
04. Временно
05. Твоё тепло
06. Пересылочки (2010)
07. Халдей
08. Зеленый дом
09. По ту сторону забора
10. Кочегарка

bonus&#58;

11. Зелёный дом (Remix)
12. Халдей (Remix)
13. По ту сторону забора (Remix
)

Отчёт ЕАС&#58;

Exact Audio Copy V0.99 prebeta 4 from 23. January 2008
EAC extraction logfile from 5. June 2010, 16:15
гр.БУТЫРКА / ХУЛИГАН
Used drive  : ASUS    DRW-2014L1   Adapter: 0  ID: 0
Read mode               : Secure
Utilize accurate stream : Yes
Defeat audio cache      : Yes
Make use of C2 pointers : No
Read offset correction                      : 6
Overread into Lead-In and Lead-Out          : No
Fill up missing offset samples with silence : Yes
Delete leading and trailing silent blocks   : No
Null samples used in CRC calculations       : Yes
Used interface                              : Installed external ASPI interface
Used output format              : User Defined Encoder
Selected bitrate                : 128 kBit/s
Quality                         : High
Add ID3 tag                     : No
Command line compressor         : C:\Program Files\Exact Audio Copy\flac.exe
Additional command line options : -T "DATE=%y" -T "GENRE=%m" -8 -V %s
TOC of the extracted CD
     Track |   Start  |  Length  | Start sector | End sector
    ---------------------------------------------------------
        1  |  0:00.00 |  3:46.20 |         0    |    16969
        2  |  3:46.20 |  3:59.50 |     16970    |    34944
        3  |  7:45.70 |  3:08.53 |     34945    |    49097
        4  | 10:54.48 |  4:40.53 |     49098    |    70150
        5  | 15:35.26 |  4:42.37 |     70151    |    91337
        6  | 20:17.63 |  5:20.16 |     91338    |   115353
        7  | 25:38.04 |  3:41.67 |    115354    |   131995
        8  | 29:19.71 |  4:47.50 |    131996    |   153570
        9  | 34:07.46 |  3:46.38 |    153571    |   170558
       10  | 37:54.09 |  3:10.29 |    170559    |   184837
       11  | 41:04.38 |  4:34.06 |    184838    |   205393
       12  | 45:38.44 |  3:53.51 |    205394    |   222919
       13  | 49:32.20 |  3:47.63 |    222920    |   240007
Range status and errors
Selected range
     Filename C:\Documents and Settings\Admin\Рабочий стол\гр.БУТЫРКА - ХУЛИГАН\гр.БУТЫРКА - ХУЛИГАН.wav
     Peak level 100.0 %
     Range quality 99.9 %
     Test CRC 99B4CDB9
     Copy CRC 99B4CDB9
     Copy OK
No errors occurred
AccurateRip summary
Track  1  not present in database
Track  2  not present in database
Track  3  not present in database
Track  4  not present in database
Track  5  not present in database
Track  6  not present in database
Track  7  not present in database
Track  8  not present in database
Track  9  not present in database
Track 10  not present in database
Track 11  not present in database
Track 12  not present in database
Track 13  not present in database
None of the tracks are present in the AccurateRip database
End of status report

Отчёт auCDtect Task manager&#58;

-----------------------
DON'T MODIFY THIS FILE
-----------------------
PERFORMER: auCDtect Task Manager, ver. 1.6.0 RC1 build 1.6.0.1
Copyright (c) 2008-2010 y-soft. All rights reserved
http://y-soft.org
ANALYZER: auCDtect: CD records authenticity detector, version 0.8.2
Copyright (c) 2004 Oleg Berngardt. All rights reserved.
Copyright (c) 2004 Alexander Djourik. All rights reserved.
FILE: гр.БУТЫРКА - ХУЛИГАН.flac
  Size: 396493679 Hash: 9674DAD488D2032DDD13EABA0FAB408C Accuracy: -m8
  Conclusion: CDDA 100%
  Signature: D21ABE1CB32DCEE9F5167559BCB08BBF1473665D
-
Яндекс.Метрика
Рейтинг@Mail.ru