Олег Андрианов - Лихие годы (2010) [FLAC|Lossless]<Шансон>

 

Создавать темы 16-Дек-2014 20:20

-Олег Андрианов - Лихие годы (2010)- Год: 2010
Жанр: Шансон
Страна-производитель диска: Россия
Продолжительность: 00:53:04
Кодек: FLAC
Битрейт: Lossless
Тип рипа: image+.cue
Треклист:
01. Лихие годы - [03:31]
02. Сахарок - [03:10]
03. Карточный азарт - [03:31]
04. Разлука - [04:12]
05. Свиданка - [03:44]
06. Гитара - [04:34]
07. Осень - [04:40]
08. Снег свободы - [04:29]
09. Я пью до дна - [03:13]
10. Путаны - [04:21]
11. Скрипачка - [05:53]
12. Моя частичка - [03:56]
13. Друзьям - [03:43]

Отчёт ЕАС&#58;

Exact Audio Copy V0.99 prebeta 4 from 23. January 2008
Отчёт EAC об извлечении, выполненном 16. марта 2014, 15:42
Олег Андрианов / Лихие годы
Дисковод: Optiarc DVD RW AD-7200S   Adapter: 1  ID: 1
Режим чтения                 : Достоверность
Использование точного потока : Да
Отключение кэша аудио        : Да
Использование указателей C2  : Нет
Коррекция смещения при чтении                     : 48
Способность читать области Lead-in и Lead-out     : Нет
Заполнение пропущенных сэмплов тишиной            : Да
Удаление блоков с тишиной в начале и конце        : Нет
При вычислениях CRC использовались нулевые сэмплы : Да
Интерфейс                                         : Встроенный Win32-интерфейс для Win NT/2000
Выходной формат : Внутренние WAV-операции
Формат сэмплов  : 44.100 Гц; 16 бит; стерео
TOC извлечённого CD
     Трек |   Старт  | Длительность | Начальный сектор | Конечный сектор
    ---------------------------------------------------------------------
       1  |  0:00.00 |    3:31.32   |           0      |      15856
       2  |  3:31.32 |    3:10.70   |       15857      |      30176
       3  |  6:42.27 |    3:31.60   |       30177      |      46061
       4  | 10:14.12 |    4:12.08   |       46062      |      64969
       5  | 14:26.20 |    3:44.57   |       64970      |      81826
       6  | 18:11.02 |    4:34.29   |       81827      |     102405
       7  | 22:45.31 |    4:40.13   |      102406      |     123418
       8  | 27:25.44 |    4:29.44   |      123419      |     143637
       9  | 31:55.13 |    3:13.32   |      143638      |     158144
      10  | 35:08.45 |    4:21.07   |      158145      |     177726
      11  | 39:29.52 |    5:53.67   |      177727      |     204268
      12  | 45:23.44 |    3:56.27   |      204269      |     221995
      13  | 49:19.71 |    3:43.44   |      221996      |     238764
Характеристики диапазона извлечения и сообщения об ошибках
Выбранный диапазон
     Имя файла Олег Андрианов - Лихие годы.wav
     Пиковый уровень 100.0 %
     Качество диапазона 100.0 %
     CRC теста 9048AD08
     CRC копии 9048AD08
     Копирование... OK
Ошибок не произошло
AccurateRip: сводка
Трек  1  нет в базе данных
Трек  2  нет в базе данных
Трек  3  нет в базе данных
Трек  4  нет в базе данных
Трек  5  нет в базе данных
Трек  6  нет в базе данных
Трек  7  нет в базе данных
Трек  8  нет в базе данных
Трек  9  нет в базе данных
Трек 10  нет в базе данных
Трек 11  нет в базе данных
Трек 12  нет в базе данных
Трек 13  нет в базе данных
Ни одного трека нет в базе AccurateRip
Конец отчёта

Отчёт auCDtect Task manager&#58;

-----------------------
DON'T MODIFY THIS FILE
-----------------------
PERFORMER: auCDtect Task Manager, ver. 1.5.1RC6 build 1.5.1.7
Copyright (c) 2008-2010 y-soft. All rights reserved
http://y-soft.org
ANALYZER: auCDtect: CD records authenticity detector, version 0.8.2
Copyright (c) 2004 Oleg Berngardt. All rights reserved.
Copyright (c) 2004 Alexander Djourik. All rights reserved.
FILE: Олег Андрианов - Лихие годы.flac
  Size: 381836680 Hash: 5615FC9EE7B4E66E21783B219F09FE10 Accuracy: -m0
  Conclusion: CDDA 100%
  Signature: 7D104EF446E5D02E7C5EC9874131C44128040E45
-
Яндекс.Метрика
Рейтинг@Mail.ru