VA - Ministry of Sound: Running Trax Winter (2013) [FLAC|Lossless]<Dance, House>

 

Создавать темы 17-Дек-2014 11:52

-VA - Ministry Of Sound: Running Trax Winter 2013- Год: 2013
Жанр: Dance, House
Лейбл: Ministry Of Sound (Australia)
Каталог#: MOSA178
Продолжительность: 03:13:48
Кодек: FLAC
Битрейт: Lossless
Тип рипа: tracks+cue+log
--
CD 1. Треклист:

01. Rudimental Feat. John Newman & Alex Clare - Not Giving In (Radio Edit) (03:46)
02. Avicii & Nicky Romero - I Could Be The One (Original Mix) (03:22)
03. Bingo Players Feat. Far East Movement - Get Up (Original Mix) (03:48)
04. Hollywood Hustlers - I Need Your Love (Wings & Rider Remix) (03:07)
05. The Potbelleez - Saved In A Bottle (Original Mix) (02:29)
06. Peking Duk - The Way You Are (Original Mix) (01:45)
07. Chicken Lips - He Not In (Noir Edit) (02:59)
08. The Other Tribe - Skirts (Original Mix) (03:07)
09. Tom Novy Feat. Michael Marshall - Your Body (Andy Van Remix) (03:30)
10. Atfc & The Cube Guys - Work (Original Mix) (02:59)
11. Fatboy Slim - Right Here Right Now (Coyu Remix) (04:30)
12. Nicky Romero Feat. John Christian & Nilson - Still The Same Man (Original Mix) (03:15)
13. Brass Knuckles - Bad Habits (Original Mix) (03:48)
14. Hi_Tack - Say Say Say (Waiting 4 U) (02:52)
15. Daddy's Groove - Stella (Original Mix) (05:07)
16. Kryder Vs Danny Howard Feat. Joel Edwards - Sending Out An S.O.S (Original Mix) (04:03)
17. Usher - Scream (Project 46 Remix) (03:45)
18. Duke Dumont Fet. A*M*E - Need U (100%) (02:42)

Продолжительность:01:01:03--

Отчет XLD&#58;

X Lossless Decoder version 20130720 (144.0)
XLD extraction logfile from 2013-09-29 14:45:00 +1000
Ministry of Sound / Audio CD
Used drive : OPTIARC DVD RW AD-5680H (revision 3AHF)
Media type : Pressed CD
Ripper mode             : XLD Secure Ripper
Disable audio cache     : OK for the drive with a cache less than 1375KiB
Make use of C2 pointers : NO
Read offset correction  : 48
Max retry count         : 8
Gap status              : Analyzed, Appended (except HTOA)
TOC of the extracted CD
     Track |   Start  |  Length  | Start sector | End sector
    ---------------------------------------------------------
        1  | 00:00:00 | 03:46:38 |         0    |    16987
        2  | 03:46:38 | 03:22:66 |     16988    |    32203
        3  | 07:09:29 | 03:48:56 |     32204    |    49359
        4  | 10:58:10 | 03:07:72 |     49360    |    63456
        5  | 14:06:07 | 02:29:39 |     63457    |    74670
        6  | 16:35:46 | 01:45:19 |     74671    |    82564
        7  | 18:20:65 | 02:59:57 |     82565    |    96046
        8  | 21:20:47 | 03:07:38 |     96047    |   110109
        9  | 24:28:10 | 03:30:00 |    110110    |   125859
       10  | 27:58:10 | 02:59:74 |    125860    |   139358
       11  | 30:58:09 | 04:30:01 |    139359    |   159609
       12  | 35:28:10 | 03:15:00 |    159610    |   174234
       13  | 38:43:10 | 03:48:56 |    174235    |   191390
       14  | 42:31:66 | 02:52:37 |    191391    |   204327
       15  | 45:24:28 | 05:07:38 |    204328    |   227390
       16  | 50:31:66 | 04:03:56 |    227391    |   245671
       17  | 54:35:47 | 03:45:00 |    245672    |   262546
       18  | 58:20:47 | 02:42:38 |    262547    |   274734
AccurateRip Summary
    Disc not found in AccurateRip DB.
All Tracks
    Album gain               : -9.72 dB
    Peak                     : 0.994354
    Statistics
        Read error                           : 0
        Jitter error (maybe fixed)           : 0
        Retry sector count                   : 0
        Damaged sector count                 : 0
Track 01
    Filename : /Volumes/SHARE/Incoming/Ministry of Sound - Running Trax Winter 2013 (2013) [FLAC]/Disc 01/01 - Rudimental Feat. John Newman & Alex Clare - Not Giving In (Original Mix).flac
    Pre-gap length : 00:02:00
    Track gain               : -8.18 dB
    Peak                     : 0.994354
    CRC32 hash (test run)    : 89F70BB9
    CRC32 hash               : 89F70BB9
    CRC32 hash (skip zero)   : F3D7DF02
    AccurateRip v1 signature : 447C86DC
    AccurateRip v2 signature : 4815966C
        ->Track not present in AccurateRip database.
    Statistics
        Read error                           : 0
        Jitter error (maybe fixed)           : 0
        Retry sector count                   : 0
        Damaged sector count                 : 0
Track 02
    Filename : /Volumes/SHARE/Incoming/Ministry of Sound - Unknown Album (2013) [FLAC]/Disc 01/02 - Avicii & Nicky Romero - I Could Be The One (Original Mix).flac
    Track gain               : -9.33 dB
    Peak                     : 0.994354
    CRC32 hash (test run)    : FFE5287A
    CRC32 hash               : FFE5287A
    CRC32 hash (skip zero)   : 15536E26
    AccurateRip v1 signature : E48D1713
    AccurateRip v2 signature : 890ADD9C
        ->Track not present in AccurateRip database.
    Statistics
        Read error                           : 0
        Jitter error (maybe fixed)           : 0
        Retry sector count                   : 0
        Damaged sector count                 : 0
Track 03
    Filename : /Volumes/SHARE/Incoming/Ministry of Sound - Unknown Album (2013) [FLAC]/Disc 01/03 - Bingo Players Feat. Far East Movement - Get Up (Original Mix).flac
    Track gain               : -9.29 dB
    Peak                     : 0.994354
    CRC32 hash (test run)    : FD970C22
    CRC32 hash               : FD970C22
    CRC32 hash (skip zero)   : 0C84D812
    AccurateRip v1 signature : 38BA6E79
    AccurateRip v2 signature : 32115C04
        ->Track not present in AccurateRip database.
    Statistics
        Read error                           : 0
        Jitter error (maybe fixed)           : 0
        Retry sector count                   : 0
        Damaged sector count                 : 0
Track 04
    Filename : /Volumes/SHARE/Incoming/Ministry of Sound - Unknown Album (2013) [FLAC]/Disc 01/04 - Hollywood Hustlers - I Need Your Love (Wings & Rider Remix).flac
    Track gain               : -7.98 dB
    Peak                     : 0.994354
    CRC32 hash (test run)    : C65F3FAE
    CRC32 hash               : C65F3FAE
    CRC32 hash (skip zero)   : CEC1A53C
    AccurateRip v1 signature : 5D007CE5
    AccurateRip v2 signature : C699B8D0
        ->Track not present in AccurateRip database.
    Statistics
        Read error                           : 0
        Jitter error (maybe fixed)           : 0
        Retry sector count                   : 0
        Damaged sector count                 : 0
Track 05
    Filename : /Volumes/SHARE/Incoming/Ministry of Sound - Unknown Album (2013) [FLAC]/Disc 01/05 - The Potbelleez - Saved In A Bottle (Original Mix) .flac
    Track gain               : -9.20 dB
    Peak                     : 0.994354
    CRC32 hash (test run)    : DFD09F14
    CRC32 hash               : DFD09F14
    CRC32 hash (skip zero)   : 64D3B2B1
    AccurateRip v1 signature : 32A204DE
    AccurateRip v2 signature : FF5725B8
        ->Track not present in AccurateRip database.
    Statistics
        Read error                           : 0
        Jitter error (maybe fixed)           : 0
        Retry sector count                   : 0
        Damaged sector count                 : 0
Track 06
    Filename : /Volumes/SHARE/Incoming/Ministry of Sound - Unknown Album (2013) [FLAC]/Disc 01/06 - Peking Duk - The Way You Are (Original Mix).flac
    Track gain               : -9.76 dB
    Peak                     : 0.994354
    CRC32 hash (test run)    : 345C75B1
    CRC32 hash               : 345C75B1
    CRC32 hash (skip zero)   : DF9DBB36
    AccurateRip v1 signature : 6C6B3E6C
    AccurateRip v2 signature : 1E64E739
        ->Track not present in AccurateRip database.
    Statistics
        Read error                           : 0
        Jitter error (maybe fixed)           : 0
        Retry sector count                   : 0
        Damaged sector count                 : 0
Track 07
    Filename : /Volumes/SHARE/Incoming/Ministry of Sound - Unknown Album (2013) [FLAC]/Disc 01/07 - Chicken Lips - He Not In (Noir Edit).flac
    Track gain               : -6.59 dB
    Peak                     : 0.994354
    CRC32 hash (test run)    : 196DADC8
    CRC32 hash               : 196DADC8
    CRC32 hash (skip zero)   : E1E7937B
    AccurateRip v1 signature : 3C1E7D20
    AccurateRip v2 signature : 6FF363D5
        ->Track not present in AccurateRip database.
    Statistics
        Read error                           : 0
        Jitter error (maybe fixed)           : 0
        Retry sector count                   : 0
        Damaged sector count                 : 0
Track 08
    Filename : /Volumes/SHARE/Incoming/Ministry of Sound - Unknown Album (2013) [FLAC]/Disc 01/08 - The Other Tribe - Skirts (Original Mix).flac
    Track gain               : -8.75 dB
    Peak                     : 0.994354
    CRC32 hash (test run)    : A03428B0
    CRC32 hash               : A03428B0
    CRC32 hash (skip zero)   : 81F4F789
    AccurateRip v1 signature : AA7DAFD5
    AccurateRip v2 signature : 634FDE97
        ->Track not present in AccurateRip database.
    Statistics
        Read error                           : 0
        Jitter error (maybe fixed)           : 0
        Retry sector count                   : 0
        Damaged sector count                 : 0
Track 09
    Filename : /Volumes/SHARE/Incoming/Ministry of Sound - Unknown Album (2013) [FLAC]/Disc 01/09 - Tom Novy Feat. Michael Marshall  - Your Body (Andy Van Remix).flac
    Track gain               : -7.90 dB
    Peak                     : 0.994354
    CRC32 hash (test run)    : 4F2B59EF
    CRC32 hash               : 4F2B59EF
    CRC32 hash (skip zero)   : E14D1A99
    AccurateRip v1 signature : E3E0C88C
    AccurateRip v2 signature : 378FA8FD
        ->Track not present in AccurateRip database.
    Statistics
        Read error                           : 0
        Jitter error (maybe fixed)           : 0
        Retry sector count                   : 0
        Damaged sector count                 : 0
Track 10
    Filename : /Volumes/SHARE/Incoming/Ministry of Sound - Unknown Album (2013) [FLAC]/Disc 01/10 - Atfc & The Cube Guys  - Work (Original Mix).flac
    Track gain               : -9.39 dB
    Peak                     : 0.994354
    CRC32 hash (test run)    : CF89645C
    CRC32 hash               : CF89645C
    CRC32 hash (skip zero)   : 255646FF
    AccurateRip v1 signature : C4EAD9D2
    AccurateRip v2 signature : 59E21969
        ->Track not present in AccurateRip database.
    Statistics
        Read error                           : 0
        Jitter error (maybe fixed)           : 0
        Retry sector count                   : 0
        Damaged sector count                 : 0
Track 11
    Filename : /Volumes/SHARE/Incoming/Ministry of Sound - Unknown Album (2013) [FLAC]/Disc 01/11 - Fatboy Slim - Right Here Right Now (Coyu Remix) .flac
    Track gain               : -10.31 dB
    Peak                     : 0.994354
    CRC32 hash (test run)    : B3737272
    CRC32 hash               : B3737272
    CRC32 hash (skip zero)   : 6B7E6F41
    AccurateRip v1 signature : B158BA8B
    AccurateRip v2 signature : 175C5748
        ->Track not present in AccurateRip database.
    Statistics
        Read error                           : 0
        Jitter error (maybe fixed)           : 0
        Retry sector count                   : 0
        Damaged sector count                 : 0
Track 12
    Filename : /Volumes/SHARE/Incoming/Ministry of Sound - Unknown Album (2013) [FLAC]/Disc 01/12 - Nicky Romero Feat. John Christian & Nilson - Still The Same Man (Original Mix).flac
    Track gain               : -10.57 dB
    Peak                     : 0.994354
    CRC32 hash (test run)    : 299637AA
    CRC32 hash               : 299637AA
    CRC32 hash (skip zero)   : 97102581
    AccurateRip v1 signature : ED64F249
    AccurateRip v2 signature : 971DE78C
        ->Track not present in AccurateRip database.
    Statistics
        Read error                           : 0
        Jitter error (maybe fixed)           : 0
        Retry sector count                   : 0
        Damaged sector count                 : 0
Track 13
    Filename : /Volumes/SHARE/Incoming/Ministry of Sound - Unknown Album (2013) [FLAC]/Disc 01/13 - Brass Knuckles - Bad Habits (Original Mix).flac
    Track gain               : -10.12 dB
    Peak                     : 0.994354
    CRC32 hash (test run)    : 0781C8B1
    CRC32 hash               : 0781C8B1
    CRC32 hash (skip zero)   : BDEACA64
    AccurateRip v1 signature : 921E4C0E
    AccurateRip v2 signature : 6E83CDF9
        ->Track not present in AccurateRip database.
    Statistics
        Read error                           : 0
        Jitter error (maybe fixed)           : 0
        Retry sector count                   : 0
        Damaged sector count                 : 0
Track 14
    Filename : /Volumes/SHARE/Incoming/Ministry of Sound - Unknown Album (2013) [FLAC]/Disc 01/14 - Hi_Tack - Say Say Say (Waiting 4 U).flac
    Track gain               : -9.82 dB
    Peak                     : 0.994354
    CRC32 hash (test run)    : C93B4405
    CRC32 hash               : C93B4405
    CRC32 hash (skip zero)   : 06E1FD8E
    AccurateRip v1 signature : 681BEEFD
    AccurateRip v2 signature : 74F0B01B
        ->Track not present in AccurateRip database.
    Statistics
        Read error                           : 0
        Jitter error (maybe fixed)           : 0
        Retry sector count                   : 0
        Damaged sector count                 : 0
Track 15
    Filename : /Volumes/SHARE/Incoming/Ministry of Sound - Unknown Album (2013) [FLAC]/Disc 01/15 - Daddy's Groove - Stella (Original Mix).flac
    Track gain               : -10.59 dB
    Peak                     : 0.994354
    CRC32 hash (test run)    : 8C90C68D
    CRC32 hash               : 8C90C68D
    CRC32 hash (skip zero)   : 57FE9966
    AccurateRip v1 signature : DF5D4BBA
    AccurateRip v2 signature : 8C52A210
        ->Track not present in AccurateRip database.
    Statistics
        Read error                           : 0
        Jitter error (maybe fixed)           : 0
        Retry sector count                   : 0
        Damaged sector count                 : 0
Track 16
    Filename : /Volumes/SHARE/Incoming/Ministry of Sound - Unknown Album (2013) [FLAC]/Disc 01/16 -  Kryder Vs Danny Howard Feat. Joel Edwards - Sending Out An S.O.S (Original Mix).flac
    Track gain               : -8.72 dB
    Peak                     : 0.994354
    CRC32 hash (test run)    : 2AD2FBF1
    CRC32 hash               : 2AD2FBF1
    CRC32 hash (skip zero)   : 24323D32
    AccurateRip v1 signature : B7E318C2
    AccurateRip v2 signature : E013D437
        ->Track not present in AccurateRip database.
    Statistics
        Read error                           : 0
        Jitter error (maybe fixed)           : 0
        Retry sector count                   : 0
        Damaged sector count                 : 0
Track 17
    Filename : /Volumes/SHARE/Incoming/Ministry of Sound - Unknown Album (2013) [FLAC]/Disc 01/17 - Usher - Scream (Project 46 Remix).flac
    Track gain               : -10.18 dB
    Peak                     : 0.994354
    CRC32 hash (test run)    : E16AF16F
    CRC32 hash               : E16AF16F
    CRC32 hash (skip zero)   : 8C250747
    AccurateRip v1 signature : 436960D0
    AccurateRip v2 signature : E8759B33
        ->Track not present in AccurateRip database.
    Statistics
        Read error                           : 0
        Jitter error (maybe fixed)           : 0
        Retry sector count                   : 0
        Damaged sector count                 : 0
Track 18
    Filename : /Volumes/SHARE/Incoming/Ministry of Sound - Unknown Album (2013) [FLAC]/Disc 01/18 - Duke Dumont Fet. A*M*E - Need U (100%) .flac
    Track gain               : -9.24 dB
    Peak                     : 0.994354
    CRC32 hash (test run)    : 4C71525D
    CRC32 hash               : 4C71525D
    CRC32 hash (skip zero)   : 46C92922
    AccurateRip v1 signature : F81376E1
    AccurateRip v2 signature : F95BAE09
        ->Track not present in AccurateRip database.
    Statistics
        Read error                           : 0
        Jitter error (maybe fixed)           : 0
        Retry sector count                   : 0
        Damaged sector count                 : 0
No errors occurred
End of status report
-CD 2. Треклист:
01. DJ Fresh - Gold Dust (Shy FX Edit) (03:01)
02. Youngblood Hawke - We Come Running (Tiesto Remix) (04:22)
03. Porter Robinson - Language (05:00)
04. Sebastian Ingrosso & Tommy Trash Feat. John Martin - Reload (Vocal Mix) (03:16)
05. Sam La More Feat. Gary Go - Adrenalin (The Only Remix) (02:30)
06. The Aston Shuffle Vs. Tommy Trash - Sunrise (Won’t Get Lost) (Tommy Trash Remix) (02:45)
07. Nicky Romero & Nervo - Like Home (02:59)
08. Rita Ora - Radioactive (Baggi Begovic Remix) (05:46)
09. Silver Sneakerz - Night & Day (03:37)
10. Moby - Raining Again (Steve Angello Remix)) (06:52)
11. Mat Zo & Porter Robinson - Easy (02:01)
12. The Presets - Fall (Hook N Sling Remix) (05:59)
13. Galavant - Tonight (02:58)
14. The Only - Looking Back (Walden Remix) (02:02)
15. Swanky Tunes & Peking Duk Feat. James McNally - You Are Like Nobody Else (03:36)
16. Vandalism Feat. Nick Clow - Anywhere Else Tonight (02:22)
17. Royaal & Venuto - Summertime (Dubvision Remix) (03:03)
18. Dirty South - Champions (02:31)
19. Disclosure Feat. Sam Smith - Latch (04:15)

Продолжительность: 01:09:06
--

Отчет XLD&#58;

X Lossless Decoder version 20130720 (144.0)
XLD extraction logfile from 2013-09-29 15:03:37 +1000
Various Artists / Running Trax Winter 2013: Jog [Disc 2]
Used drive : (null) (null) (revision (null))
Media type :
Ripper mode             : XLD Secure Ripper
Disable audio cache     : OK for the drive with a cache less than 1375KiB
Make use of C2 pointers : NO
Read offset correction  : 48
Max retry count         : 8
Gap status              : Analyzed, Appended (except HTOA)
TOC of the extracted CD
     Track |   Start  |  Length  | Start sector | End sector
    ---------------------------------------------------------
        1  | 00:00:00 | 03:01:66 |         0    |    13640
        2  | 03:01:66 | 04:22:38 |     13641    |    33328
        3  | 07:24:29 | 05:00:00 |     33329    |    55828
        4  | 12:24:29 | 03:16:65 |     55829    |    70593
        5  | 15:41:19 | 02:30:00 |     70594    |    81843
        6  | 18:11:19 | 02:45:01 |     81844    |    94219
        7  | 20:56:20 | 02:59:74 |     94220    |   107718
        8  | 23:56:19 | 05:46:66 |    107719    |   133734
        9  | 29:43:10 | 03:37:37 |    133735    |   150046
       10  | 33:20:47 | 06:52:56 |    150047    |   181002
       11  | 40:13:28 | 02:01:47 |    181003    |   190124
       12  | 42:15:00 | 05:59:58 |    190125    |   217107
       13  | 48:14:58 | 02:58:28 |    217108    |   230485
       14  | 51:13:11 | 02:02:39 |    230486    |   239674
       15  | 53:15:50 | 03:36:63 |    239675    |   255937
       16  | 56:52:38 | 02:22:38 |    255938    |   266625
       17  | 59:15:01 | 03:03:56 |    266626    |   280406
       18  | 62:18:57 | 02:31:65 |    280407    |   291796
       19  | 64:50:47 | 04:15:45 |    291797    |   310966
AccurateRip Summary
    Disc not found in AccurateRip DB.
All Tracks
    Album gain               : -9.37 dB
    Peak                     : 0.994385
    Statistics
        Read error                           : 0
        Jitter error (maybe fixed)           : 0
        Retry sector count                   : 0
        Damaged sector count                 : 0
Track 01
    Filename : /Volumes/SHARE/Incoming/Compilations - Running Trax Winter 2013пјљ Jog [Disc 2] (2013) [FLAC]/Disc 02/01 - DJ Fresh - Gold Dust (Shy FX Edit).flac
    Pre-gap length : 00:02:00
    Track gain               : -9.82 dB
    Peak                     : 0.994354
    CRC32 hash (test run)    : A44A57CA
    CRC32 hash               : A44A57CA
    CRC32 hash (skip zero)   : A3437124
    AccurateRip v1 signature : F420C814
    AccurateRip v2 signature : 55D755B8
        ->Track not present in AccurateRip database.
    Statistics
        Read error                           : 0
        Jitter error (maybe fixed)           : 0
        Retry sector count                   : 0
        Damaged sector count                 : 0
Track 02
    Filename : /Volumes/SHARE/Incoming/Compilations - Running Trax Winter 2013пјљ Jog [Disc 2] (2013) [FLAC]/Disc 02/02 - Youngblood Hawke - We Come Running (TiГ«sto Remix).flac
    Track gain               : -10.27 dB
    Peak                     : 0.994354
    CRC32 hash (test run)    : B420F307
    CRC32 hash               : B420F307
    CRC32 hash (skip zero)   : BA1713A4
    AccurateRip v1 signature : A673DF14
    AccurateRip v2 signature : 2A952B4B
        ->Track not present in AccurateRip database.
    Statistics
        Read error                           : 0
        Jitter error (maybe fixed)           : 0
        Retry sector count                   : 0
        Damaged sector count                 : 0
Track 03
    Filename : /Volumes/SHARE/Incoming/Compilations - Running Trax Winter 2013пјљ Jog [Disc 2] (2013) [FLAC]/Disc 02/03 - Porter Robinson - Language.flac
    Track gain               : -9.25 dB
    Peak                     : 0.994354
    CRC32 hash (test run)    : E6BD8E04
    CRC32 hash               : E6BD8E04
    CRC32 hash (skip zero)   : CCF7DA8D
    AccurateRip v1 signature : F0FE15DF
    AccurateRip v2 signature : 70AE59A9
        ->Track not present in AccurateRip database.
    Statistics
        Read error                           : 0
        Jitter error (maybe fixed)           : 0
        Retry sector count                   : 0
        Damaged sector count                 : 0
Track 04
    Filename : /Volumes/SHARE/Incoming/Compilations - Running Trax Winter 2013пјљ Jog [Disc 2] (2013) [FLAC]/Disc 02/04 - Sebastian Ingrosso & Tommy Trash Feat. John Martin - Reload (Vocal Mix).flac
    Track gain               : -9.99 dB
    Peak                     : 0.994354
    CRC32 hash (test run)    : 46A314E7
    CRC32 hash               : 46A314E7
    CRC32 hash (skip zero)   : CED43BAD
    AccurateRip v1 signature : 3C84938E
    AccurateRip v2 signature : 8CD15909
        ->Track not present in AccurateRip database.
    Statistics
        Read error                           : 0
        Jitter error (maybe fixed)           : 0
        Retry sector count                   : 0
        Damaged sector count                 : 0
Track 05
    Filename : /Volumes/SHARE/Incoming/Compilations - Running Trax Winter 2013пјљ Jog [Disc 2] (2013) [FLAC]/Disc 02/05 - Sam La More Feat. Gary Go - Adrenalin (The Only Remix).flac
    Track gain               : -8.77 dB
    Peak                     : 0.994354
    CRC32 hash (test run)    : 2C99FAC9
    CRC32 hash               : 2C99FAC9
    CRC32 hash (skip zero)   : C4DD1159
    AccurateRip v1 signature : 733E6755
    AccurateRip v2 signature : FF58FA54
        ->Track not present in AccurateRip database.
    Statistics
        Read error                           : 0
        Jitter error (maybe fixed)           : 0
        Retry sector count                   : 0
        Damaged sector count                 : 0
Track 06
    Filename : /Volumes/SHARE/Incoming/Compilations - Running Trax Winter 2013пјљ Jog [Disc 2] (2013) [FLAC]/Disc 02/06 - The Aston Shuffle Vs. Tommy Trash - Sunrise (Won’t Get Lost) (Tommy Trash Remix).flac
    Track gain               : -10.07 dB
    Peak                     : 0.994354
    CRC32 hash (test run)    : E1DFFE2E
    CRC32 hash               : E1DFFE2E
    CRC32 hash (skip zero)   : BFB4C7B9
    AccurateRip v1 signature : 91CE2308
    AccurateRip v2 signature : 8F2E16AB
        ->Track not present in AccurateRip database.
    Statistics
        Read error                           : 0
        Jitter error (maybe fixed)           : 0
        Retry sector count                   : 0
        Damaged sector count                 : 0
Track 07
    Filename : /Volumes/SHARE/Incoming/Compilations - Running Trax Winter 2013пјљ Jog [Disc 2] (2013) [FLAC]/Disc 02/07 - Nicky Romero & Nervo - Like Home.flac
    Track gain               : -9.83 dB
    Peak                     : 0.994354
    CRC32 hash (test run)    : 077482C9
    CRC32 hash               : 077482C9
    CRC32 hash (skip zero)   : 36A813B8
    AccurateRip v1 signature : 59278BBE
    AccurateRip v2 signature : E6B49154
        ->Track not present in AccurateRip database.
    Statistics
        Read error                           : 0
        Jitter error (maybe fixed)           : 0
        Retry sector count                   : 0
        Damaged sector count                 : 0
Track 08
    Filename : /Volumes/SHARE/Incoming/Compilations - Running Trax Winter 2013пјљ Jog [Disc 2] (2013) [FLAC]/Disc 02/08 - Rita Ora - Radioactive (Baggi Begovic Remix).flac
    Track gain               : -9.38 dB
    Peak                     : 0.994354
    CRC32 hash (test run)    : C7C8B7D3
    CRC32 hash               : C7C8B7D3
    CRC32 hash (skip zero)   : 78A1CB07
    AccurateRip v1 signature : 1A9BF044
    AccurateRip v2 signature : 6F7311C3
        ->Track not present in AccurateRip database.
    Statistics
        Read error                           : 0
        Jitter error (maybe fixed)           : 0
        Retry sector count                   : 0
        Damaged sector count                 : 0
Track 09
    Filename : /Volumes/SHARE/Incoming/Compilations - Running Trax Winter 2013пјљ Jog [Disc 2] (2013) [FLAC]/Disc 02/09 - Silver Sneakerz - Night & Day.flac
    Track gain               : -7.59 dB
    Peak                     : 0.994354
    CRC32 hash (test run)    : DE6CB8F1
    CRC32 hash               : DE6CB8F1
    CRC32 hash (skip zero)   : EE794314
    AccurateRip v1 signature : 307B90B1
    AccurateRip v2 signature : 2CDC6AE9
        ->Track not present in AccurateRip database.
    Statistics
        Read error                           : 0
        Jitter error (maybe fixed)           : 0
        Retry sector count                   : 0
        Damaged sector count                 : 0
Track 10
    Filename : /Volumes/SHARE/Incoming/Compilations - Running Trax Winter 2013пјљ Jog [Disc 2] (2013) [FLAC]/Disc 02/10 - Moby - Raining Again (Steve Angello Remix)).flac
    Track gain               : -8.26 dB
    Peak                     : 0.994354
    CRC32 hash (test run)    : 22628A04
    CRC32 hash               : 22628A04
    CRC32 hash (skip zero)   : 7D04F8F9
    AccurateRip v1 signature : 4708E6EF
    AccurateRip v2 signature : 3EAE5510
        ->Track not present in AccurateRip database.
    Statistics
        Read error                           : 0
        Jitter error (maybe fixed)           : 0
        Retry sector count                   : 0
        Damaged sector count                 : 0
Track 11
    Filename : /Volumes/SHARE/Incoming/Compilations - Running Trax Winter 2013пјљ Jog [Disc 2] (2013) [FLAC]/Disc 02/11 - Mat Zo & Porter Robinson - Easy.flac
    Track gain               : -7.34 dB
    Peak                     : 0.994324
    CRC32 hash (test run)    : B28BB287
    CRC32 hash               : B28BB287
    CRC32 hash (skip zero)   : 15168388
    AccurateRip v1 signature : 670D2CDD
    AccurateRip v2 signature : 2650DE2A
        ->Track not present in AccurateRip database.
    Statistics
        Read error                           : 0
        Jitter error (maybe fixed)           : 0
        Retry sector count                   : 0
        Damaged sector count                 : 0
Track 12
    Filename : /Volumes/SHARE/Incoming/Compilations - Running Trax Winter 2013пјљ Jog [Disc 2] (2013) [FLAC]/Disc 02/12 - The Presets - Fall (Hook N Sling Remix).flac
    Track gain               : -9.32 dB
    Peak                     : 0.994354
    CRC32 hash (test run)    : 2BE62718
    CRC32 hash               : 2BE62718
    CRC32 hash (skip zero)   : B20D386D
    AccurateRip v1 signature : 0DA773FC
    AccurateRip v2 signature : 3D13165F
        ->Track not present in AccurateRip database.
    Statistics
        Read error                           : 0
        Jitter error (maybe fixed)           : 0
        Retry sector count                   : 0
        Damaged sector count                 : 0
Track 13
    Filename : /Volumes/SHARE/Incoming/Compilations - Running Trax Winter 2013пјљ Jog [Disc 2] (2013) [FLAC]/Disc 02/13 - Galavant - Tonight.flac
    Track gain               : -10.34 dB
    Peak                     : 0.994354
    CRC32 hash (test run)    : BC43D2DD
    CRC32 hash               : BC43D2DD
    CRC32 hash (skip zero)   : 92976711
    AccurateRip v1 signature : 6F0524FE
    AccurateRip v2 signature : 44E66F14
        ->Track not present in AccurateRip database.
    Statistics
        Read error                           : 0
        Jitter error (maybe fixed)           : 0
        Retry sector count                   : 0
        Damaged sector count                 : 0
Track 14
    Filename : /Volumes/SHARE/Incoming/Compilations - Running Trax Winter 2013пјљ Jog [Disc 2] (2013) [FLAC]/Disc 02/14 - The Only - Looking Back (Walden Remix).flac
    Track gain               : -8.75 dB
    Peak                     : 0.994354
    CRC32 hash (test run)    : 85ADEC68
    CRC32 hash               : 85ADEC68
    CRC32 hash (skip zero)   : 6014A7AE
    AccurateRip v1 signature : 8A19A36B
    AccurateRip v2 signature : F62AA12D
        ->Track not present in AccurateRip database.
    Statistics
        Read error                           : 0
        Jitter error (maybe fixed)           : 0
        Retry sector count                   : 0
        Damaged sector count                 : 0
Track 15
    Filename : /Volumes/SHARE/Incoming/Compilations - Running Trax Winter 2013пјљ Jog [Disc 2] (2013) [FLAC]/Disc 02/15 - Swanky Tunes & Peking Duk Feat. James McNally - You Are Like Nobody Else.flac
    Track gain               : -8.90 dB
    Peak                     : 0.994354
    CRC32 hash (test run)    : 3CA9AFBE
    CRC32 hash               : 3CA9AFBE
    CRC32 hash (skip zero)   : B942F122
    AccurateRip v1 signature : D3987260
    AccurateRip v2 signature : 4CBC618B
        ->Track not present in AccurateRip database.
    Statistics
        Read error                           : 0
        Jitter error (maybe fixed)           : 0
        Retry sector count                   : 0
        Damaged sector count                 : 0
Track 16
    Filename : /Volumes/SHARE/Incoming/Compilations - Running Trax Winter 2013пјљ Jog [Disc 2] (2013) [FLAC]/Disc 02/16 - Vandalism Feat. Nick Clow - Anywhere Else Tonight.flac
    Track gain               : -7.15 dB
    Peak                     : 0.994354
    CRC32 hash (test run)    : 52F82458
    CRC32 hash               : 52F82458
    CRC32 hash (skip zero)   : CF8A8C73
    AccurateRip v1 signature : DA502D78
    AccurateRip v2 signature : 931A3F30
        ->Track not present in AccurateRip database.
    Statistics
        Read error                           : 0
        Jitter error (maybe fixed)           : 0
        Retry sector count                   : 0
        Damaged sector count                 : 0
Track 17
    Filename : /Volumes/SHARE/Incoming/Compilations - Running Trax Winter 2013пјљ Jog [Disc 2] (2013) [FLAC]/Disc 02/17 - Royaal & Venuto - Summertime (Dubvision Remix).flac
    Track gain               : -7.67 dB
    Peak                     : 0.994354
    CRC32 hash (test run)    : D923B27B
    CRC32 hash               : D923B27B
    CRC32 hash (skip zero)   : 5B459AE6
    AccurateRip v1 signature : 96278D8F
    AccurateRip v2 signature : 67B6BAE1
        ->Track not present in AccurateRip database.
    Statistics
        Read error                           : 0
        Jitter error (maybe fixed)           : 0
        Retry sector count                   : 0
        Damaged sector count                 : 0
Track 18
    Filename : /Volumes/SHARE/Incoming/Compilations - Running Trax Winter 2013пјљ Jog [Disc 2] (2013) [FLAC]/Disc 02/18 - Dirty South - Champions.flac
    Track gain               : -7.58 dB
    Peak                     : 0.994385
    CRC32 hash (test run)    : 29A03DDE
    CRC32 hash               : 29A03DDE
    CRC32 hash (skip zero)   : 527129E3
    AccurateRip v1 signature : 95F6EB2A
    AccurateRip v2 signature : 6D6BC02A
        ->Track not present in AccurateRip database.
    Statistics
        Read error                           : 0
        Jitter error (maybe fixed)           : 0
        Retry sector count                   : 0
        Damaged sector count                 : 0
Track 19
    Filename : /Volumes/SHARE/Incoming/Compilations - Running Trax Winter 2013пјљ Jog [Disc 2] (2013) [FLAC]/Disc 02/19 - Disclosure Feat. Sam Smith - Latch.flac
    Track gain               : -7.73 dB
    Peak                     : 0.994354
    CRC32 hash (test run)    : 66E259C2
    CRC32 hash               : 66E259C2
    CRC32 hash (skip zero)   : DE2A7D56
    AccurateRip v1 signature : 47BAA1C4
    AccurateRip v2 signature : 06ABD7FA
        ->Track not present in AccurateRip database.
    Statistics
        Read error                           : 0
        Jitter error (maybe fixed)           : 0
        Retry sector count                   : 0
        Damaged sector count                 : 0
No errors occurred
End of status report
-CD 3. Треклист:
01. Sam & The Womp - Bom Bom (Radio Edit) (02:48)
02. Pitbull Feat. TJR - Don't Stop The Party (03:23)
03. Timmy Trumpet - Snapback (Will Sparks Remix) (03:23)
04. Bombs Away - Party Bass (03:53)
05. Luciana - U B The Bass (Uberjak'd & J-Trick Remix) (03:09)
06. Showtek & Justin Prime - Cannonball (04:36)
07. Benny Benassi - Satisfaction 2013 (Dimitri Vegas & Like Mike Remix) (03:08)
08. Dimitri Vegas & Like Mike - Wakanda (Original Mix) (03:52)
09. Neon Stereo - Loaded (Original Mix) (04:07)
10. J-Trick & Taco Cat Feat. Feral Is Kinky - Jumanji (03:40)
11. Ferry Corsten - Rock Your Body (Dimitri Vegas & Like Mike Mainstage Remix) (02:25)
12. Joel Fletcher & SCNDL - Shakedown (03:01)
13. SCNDL & Zoolanda - Stacked (02:03)
14. Tommie Sunshine & Disco Fries Feat. Kid Sister - Cool Without You (Orkestrated Remix) (03:12)
15. Showtek - Slow Down (02:47)
16. W&W & Ummet Ozcan - The Code (03:50)
17. Armin Van Buuren Feat. Trevor Guthrie - This Is What It Feels Like (W & W Remix) (04:00)
18. Hardwell Feat. Mitch Crown - Call Me A Spaceman (02:54)
19. Chicane - Salt Water (03:20)

Продолжительность: 01:03:39

Отчет XLD&#58;

X Lossless Decoder version 20130720 (144.0)
XLD extraction logfile from 2013-09-29 15:23:56 +1000
Various Artists / Running Trax Winter 2013: Run [Disc 3]
Used drive : OPTIARC DVD RW AD-5680H (revision 3AHF)
Media type : Pressed CD
Ripper mode             : XLD Secure Ripper
Disable audio cache     : OK for the drive with a cache less than 1375KiB
Make use of C2 pointers : NO
Read offset correction  : 48
Max retry count         : 8
Gap status              : Analyzed, Appended (except HTOA)
TOC of the extracted CD
     Track |   Start  |  Length  | Start sector | End sector
    ---------------------------------------------------------
        1  | 00:00:00 | 02:48:58 |         0    |    12657
        2  | 02:48:58 | 03:23:48 |     12658    |    27930
        3  | 06:12:31 | 03:23:29 |     27931    |    43184
        4  | 09:35:60 | 03:53:00 |     43185    |    60659
        5  | 13:28:60 | 03:09:05 |     60660    |    74839
        6  | 16:37:65 | 04:36:42 |     74840    |    95581
        7  | 21:14:32 | 03:08:66 |     95582    |   109747
        8  | 24:23:23 | 03:52:56 |    109748    |   127203
        9  | 28:16:04 | 04:07:19 |    127204    |   145747
       10  | 32:23:23 | 03:40:01 |    145748    |   162248
       11  | 36:03:24 | 02:25:34 |    162249    |   173157
       12  | 38:28:58 | 03:01:60 |    173158    |   186792
       13  | 41:30:43 | 02:03:48 |    186793    |   196065
       14  | 43:34:16 | 03:12:55 |    196066    |   210520
       15  | 46:46:71 | 02:47:21 |    210521    |   223066
       16  | 49:34:17 | 03:50:67 |    223067    |   240383
       17  | 53:25:09 | 04:00:00 |    240384    |   258383
       18  | 57:25:09 | 02:54:24 |    258384    |   271457
       19  | 60:19:33 | 03:20:26 |    271458    |   286483
AccurateRip Summary
    Disc not found in AccurateRip DB.
All Tracks
    Album gain               : -8.97 dB
    Peak                     : 0.994385
    Statistics
        Read error                           : 0
        Jitter error (maybe fixed)           : 0
        Retry sector count                   : 0
        Damaged sector count                 : 0
Track 01
    Filename : /Volumes/SHARE/Incoming/Compilations - Running Trax Winter 2013пјљ Run [Disc 3] (2013) [FLAC]/Disc 01/01 - Sam & The Womp - Bom Bom (Radio Edit).flac
    Pre-gap length : 00:02:00
    Track gain               : -8.33 dB
    Peak                     : 0.994354
    CRC32 hash (test run)    : 2DC6067F
    CRC32 hash               : 2DC6067F
    CRC32 hash (skip zero)   : BAEA3A3E
    AccurateRip v1 signature : 169484F7
    AccurateRip v2 signature : 2A6DFD91
        ->Track not present in AccurateRip database.
    Statistics
        Read error                           : 0
        Jitter error (maybe fixed)           : 0
        Retry sector count                   : 0
        Damaged sector count                 : 0
Track 02
    Filename : /Volumes/SHARE/Incoming/Compilations - Running Trax Winter 2013пјљ Run [Disc 3] (2013) [FLAC]/Disc 01/02 - Pitbull Feat. TJR - Don't Stop The Party.flac
    Track gain               : -6.86 dB
    Peak                     : 0.994354
    CRC32 hash (test run)    : 17C5DFC3
    CRC32 hash               : 17C5DFC3
    CRC32 hash (skip zero)   : B1669C08
    AccurateRip v1 signature : 335B903D
    AccurateRip v2 signature : 516AD57A
        ->Track not present in AccurateRip database.
    Statistics
        Read error                           : 0
        Jitter error (maybe fixed)           : 0
        Retry sector count                   : 0
        Damaged sector count                 : 0
Track 03
    Filename : /Volumes/SHARE/Incoming/Compilations - Running Trax Winter 2013пјљ Run [Disc 3] (2013) [FLAC]/Disc 01/03 - Timmy Trumpet - Snapback (Will Sparks Remix).flac
    Track gain               : -8.77 dB
    Peak                     : 0.994354
    CRC32 hash (test run)    : 0E5FD15E
    CRC32 hash               : 0E5FD15E
    CRC32 hash (skip zero)   : B62F48DF
    AccurateRip v1 signature : B78E263F
    AccurateRip v2 signature : 0DFA0A4B
        ->Track not present in AccurateRip database.
    Statistics
        Read error                           : 0
        Jitter error (maybe fixed)           : 0
        Retry sector count                   : 0
        Damaged sector count                 : 0
Track 04
    Filename : /Volumes/SHARE/Incoming/Compilations - Running Trax Winter 2013пјљ Run [Disc 3] (2013) [FLAC]/Disc 01/04 - Bombs Away - Party Bass.flac
    Track gain               : -9.38 dB
    Peak                     : 0.994354
    CRC32 hash (test run)    : 55BA8E98
    CRC32 hash               : 55BA8E98
    CRC32 hash (skip zero)   : 9B603EC1
    AccurateRip v1 signature : C33E60A7
    AccurateRip v2 signature : D5A5DBF6
        ->Track not present in AccurateRip database.
    Statistics
        Read error                           : 0
        Jitter error (maybe fixed)           : 0
        Retry sector count                   : 0
        Damaged sector count                 : 0
Track 05
    Filename : /Volumes/SHARE/Incoming/Compilations - Running Trax Winter 2013пјљ Run [Disc 3] (2013) [FLAC]/Disc 01/05 - Luciana - U B The Bass (Uberjak'd & J-Trick Remix).flac
    Track gain               : -9.58 dB
    Peak                     : 0.994354
    CRC32 hash (test run)    : 53075AB6
    CRC32 hash               : 53075AB6
    CRC32 hash (skip zero)   : 1EA68DB0
    AccurateRip v1 signature : 74CF58C3
    AccurateRip v2 signature : 6CA5B14B
        ->Track not present in AccurateRip database.
    Statistics
        Read error                           : 0
        Jitter error (maybe fixed)           : 0
        Retry sector count                   : 0
        Damaged sector count                 : 0
Track 06
    Filename : /Volumes/SHARE/Incoming/Compilations - Running Trax Winter 2013пјљ Run [Disc 3] (2013) [FLAC]/Disc 01/06 - Showtek & Justin Prime - Cannonball.flac
    Track gain               : -8.67 dB
    Peak                     : 0.994385
    CRC32 hash (test run)    : C3D293CB
    CRC32 hash               : C3D293CB
    CRC32 hash (skip zero)   : E1EC225E
    AccurateRip v1 signature : 08AD6897
    AccurateRip v2 signature : 26B6D3BB
        ->Track not present in AccurateRip database.
    Statistics
        Read error                           : 0
        Jitter error (maybe fixed)           : 0
        Retry sector count                   : 0
        Damaged sector count                 : 0
Track 07
    Filename : /Volumes/SHARE/Incoming/Compilations - Running Trax Winter 2013пјљ Run [Disc 3] (2013) [FLAC]/Disc 01/07 - Benny Benassi - Satisfaction 2013 (Dimitri Vegas & Like Mike Remix).flac
    Track gain               : -9.03 dB
    Peak                     : 0.994354
    CRC32 hash (test run)    : DE771B46
    CRC32 hash               : DE771B46
    CRC32 hash (skip zero)   : 3ECBEE6F
    AccurateRip v1 signature : D5052AF1
    AccurateRip v2 signature : 81DD5B8D
        ->Track not present in AccurateRip database.
    Statistics
        Read error                           : 0
        Jitter error (maybe fixed)           : 0
        Retry sector count                   : 0
        Damaged sector count                 : 0
Track 08
    Filename : /Volumes/SHARE/Incoming/Compilations - Running Trax Winter 2013пјљ Run [Disc 3] (2013) [FLAC]/Disc 01/08 - Dimitri Vegas & Like Mike - Wakanda (Original Mix).flac
    Track gain               : -9.68 dB
    Peak                     : 0.994354
    CRC32 hash (test run)    : 6E18BF70
    CRC32 hash               : 6E18BF70
    CRC32 hash (skip zero)   : 69B4BA13
    AccurateRip v1 signature : 90E2D153
    AccurateRip v2 signature : 72B2162D
        ->Track not present in AccurateRip database.
    Statistics
        Read error                           : 0
        Jitter error (maybe fixed)           : 0
        Retry sector count                   : 0
        Damaged sector count                 : 0
Track 09
    Filename : /Volumes/SHARE/Incoming/Compilations - Running Trax Winter 2013пјљ Run [Disc 3] (2013) [FLAC]/Disc 01/09 - Neon Stereo - Loaded (Original Mix).flac
    Track gain               : -8.74 dB
    Peak                     : 0.994354
    CRC32 hash (test run)    : 4FD1787B
    CRC32 hash               : 4FD1787B
    CRC32 hash (skip zero)   : 011CD181
    AccurateRip v1 signature : D757F14C
    AccurateRip v2 signature : E56150EE
        ->Track not present in AccurateRip database.
    Statistics
        Read error                           : 0
        Jitter error (maybe fixed)           : 0
        Retry sector count                   : 0
        Damaged sector count                 : 0
Track 10
    Filename : /Volumes/SHARE/Incoming/Compilations - Running Trax Winter 2013пјљ Run [Disc 3] (2013) [FLAC]/Disc 01/10 - J-Trick & Taco Cat Feat. Feral Is Kinky - Jumanji.flac
    Track gain               : -8.54 dB
    Peak                     : 0.994354
    CRC32 hash (test run)    : CF8398E5
    CRC32 hash               : CF8398E5
    CRC32 hash (skip zero)   : 32891973
    AccurateRip v1 signature : C355FD72
    AccurateRip v2 signature : 438D4C32
        ->Track not present in AccurateRip database.
    Statistics
        Read error                           : 0
        Jitter error (maybe fixed)           : 0
        Retry sector count                   : 0
        Damaged sector count                 : 0
Track 11
    Filename : /Volumes/SHARE/Incoming/Compilations - Running Trax Winter 2013пјљ Run [Disc 3] (2013) [FLAC]/Disc 01/11 - Ferry Corsten - Rock Your Body (Dimitri Vegas & Like Mike Mainstage Remix).flac
    Track gain               : -9.68 dB
    Peak                     : 0.994354
    CRC32 hash (test run)    : 73E80104
    CRC32 hash               : 73E80104
    CRC32 hash (skip zero)   : 54DF4209
    AccurateRip v1 signature : 3F255240
    AccurateRip v2 signature : 5AC27A45
        ->Track not present in AccurateRip database.
    Statistics
        Read error                           : 0
        Jitter error (maybe fixed)           : 0
        Retry sector count                   : 0
        Damaged sector count                 : 0
Track 12
    Filename : /Volumes/SHARE/Incoming/Compilations - Running Trax Winter 2013пјљ Run [Disc 3] (2013) [FLAC]/Disc 01/12 - Joel Fletcher & SCNDL - Shakedown.flac
    Track gain               : -8.34 dB
    Peak                     : 0.994354
    CRC32 hash (test run)    : 9115182F
    CRC32 hash               : 9115182F
    CRC32 hash (skip zero)   : 22589AF6
    AccurateRip v1 signature : 2A2D9616
    AccurateRip v2 signature : 74EFCC56
        ->Track not present in AccurateRip database.
    Statistics
        Read error                           : 0
        Jitter error (maybe fixed)           : 0
        Retry sector count                   : 0
        Damaged sector count                 : 0
Track 13
    Filename : /Volumes/SHARE/Incoming/Compilations - Running Trax Winter 2013пјљ Run [Disc 3] (2013) [FLAC]/Disc 01/13 - SCNDL & Zoolanda - Stacked.flac
    Track gain               : -8.90 dB
    Peak                     : 0.994354
    CRC32 hash (test run)    : D0AAB925
    CRC32 hash               : D0AAB925
    CRC32 hash (skip zero)   : 2C4D1631
    AccurateRip v1 signature : 5B9206B3
    AccurateRip v2 signature : 052C1F4A
        ->Track not present in AccurateRip database.
    Statistics
        Read error                           : 0
        Jitter error (maybe fixed)           : 0
        Retry sector count                   : 0
        Damaged sector count                 : 0
Track 14
    Filename : /Volumes/SHARE/Incoming/Compilations - Running Trax Winter 2013пјљ Run [Disc 3] (2013) [FLAC]/Disc 01/14 - Tommie Sunshine & Disco Fries Feat. Kid Sister - Cool Without You (Orkestrated Remix).flac
    Track gain               : -7.61 dB
    Peak                     : 0.994354
    CRC32 hash (test run)    : 5676DB88
    CRC32 hash               : 5676DB88
    CRC32 hash (skip zero)   : 84701209
    AccurateRip v1 signature : C84A7B38
    AccurateRip v2 signature : 4D33DCEC
        ->Track not present in AccurateRip database.
    Statistics
        Read error                           : 0
        Jitter error (maybe fixed)           : 0
        Retry sector count                   : 0
        Damaged sector count                 : 0
Track 15
    Filename : /Volumes/SHARE/Incoming/Compilations - Running Trax Winter 2013пјљ Run [Disc 3] (2013) [FLAC]/Disc 01/15 - Showtek - Slow Down.flac
    Track gain               : -8.69 dB
    Peak                     : 0.994354
    CRC32 hash (test run)    : CEA3539B
    CRC32 hash               : CEA3539B
    CRC32 hash (skip zero)   : C70D442C
    AccurateRip v1 signature : 3D90DF9D
    AccurateRip v2 signature : 3DCF7DC2
        ->Track not present in AccurateRip database.
    Statistics
        Read error                           : 0
        Jitter error (maybe fixed)           : 0
        Retry sector count                   : 0
        Damaged sector count                 : 0
Track 16
    Filename : /Volumes/SHARE/Incoming/Compilations - Running Trax Winter 2013пјљ Run [Disc 3] (2013) [FLAC]/Disc 01/16 - W&W & Ummet Ozcan - The Code.flac
    Track gain               : -8.25 dB
    Peak                     : 0.994354
    CRC32 hash (test run)    : 0F6E7F27
    CRC32 hash               : 0F6E7F27
    CRC32 hash (skip zero)   : 78482048
    AccurateRip v1 signature : E99C89F5
    AccurateRip v2 signature : 538FD1A5
        ->Track not present in AccurateRip database.
    Statistics
        Read error                           : 0
        Jitter error (maybe fixed)           : 0
        Retry sector count                   : 0
        Damaged sector count                 : 0
Track 17
    Filename : /Volumes/SHARE/Incoming/Compilations - Running Trax Winter 2013пјљ Run [Disc 3] (2013) [FLAC]/Disc 01/17 - Armin Van Buuren Feat. Trevor Guthrie - This Is What It Feels Like (W & W Remix).flac
    Track gain               : -9.75 dB
    Peak                     : 0.994354
    CRC32 hash (test run)    : 2A54A12F
    CRC32 hash               : 2A54A12F
    CRC32 hash (skip zero)   : 0223E06E
    AccurateRip v1 signature : 761AD92D
    AccurateRip v2 signature : 95D0A74A
        ->Track not present in AccurateRip database.
    Statistics
        Read error                           : 0
        Jitter error (maybe fixed)           : 0
        Retry sector count                   : 0
        Damaged sector count                 : 0
Track 18
    Filename : /Volumes/SHARE/Incoming/Compilations - Running Trax Winter 2013пјљ Run [Disc 3] (2013) [FLAC]/Disc 01/18 - Hardwell Feat. Mitch Crown - Call Me A Spaceman.flac
    Track gain               : -7.80 dB
    Peak                     : 0.994354
    CRC32 hash (test run)    : 73929669
    CRC32 hash               : 73929669
    CRC32 hash (skip zero)   : 6A972684
    AccurateRip v1 signature : 3DCA0E17
    AccurateRip v2 signature : DCCB4290
        ->Track not present in AccurateRip database.
    Statistics
        Read error                           : 0
        Jitter error (maybe fixed)           : 0
        Retry sector count                   : 0
        Damaged sector count                 : 0
Track 19
    Filename : /Volumes/SHARE/Incoming/Compilations - Running Trax Winter 2013пјљ Run [Disc 3] (2013) [FLAC]/Disc 01/19 - Chicane - Salt Water.flac
    Track gain               : -8.05 dB
    Peak                     : 0.994354
    CRC32 hash (test run)    : 5E1B14B7
    CRC32 hash               : 5E1B14B7
    CRC32 hash (skip zero)   : FC633EAA
    AccurateRip v1 signature : 7CB4B5E3
    AccurateRip v2 signature : 0A4916D2
        ->Track not present in AccurateRip database.
    Statistics
        Read error                           : 0
        Jitter error (maybe fixed)           : 0
        Retry sector count                   : 0
        Damaged sector count                 : 0
No errors occurred
End of status report
Яндекс.Метрика
Рейтинг@Mail.ru