Desireless - Francois (1989) Reissue /2000, Choice Of Music/ [FLAC|Lossless]<Electronic, Synth-pop>

 

Создавать темы 17-Дек-2014 11:54

-Desireless - Francois (1989)- Год: 1989
Жанр: Electronic, Synth-pop
Лейбл: Choice Of Music. Made in Germany.
Каталог #: 200 105-2
Продолжительность: 00:56:27-Кодек: FLAC
Тип рипа: image + .cue
Битрейт: Lossless-Треклист:
01. Voyage, Voyage (4:24)
02. Qui Sommes-Nous? (4:30)
03. Animal (4:49)
04. Hari Om Ramakrishna (5:10)
05. Tombee D'Une Montagne (5:09)
06. Oublie-Les, Oublie (4:00)
07. Les Commencements (4:05)
08. Elle Est Commes Les Etoiles (4:17)
09. Qui Peut Savoir? (3:50)
10. John (4:13)
11. Dis Pourquoi (4:42)
12. Voyage, Voyage (Maxi Version) (6:43)
13. Dis Pourquoi (New Age Mix) (0:35)-

Отчёт ЕАС&#58;

Exact Audio Copy V1.0 beta 3 from 29. August 2011
Отчёт EAC об извлечении, выполненном 10. августа 2013, 14:04
Desireless / Francois
Дисковод: PIONEER DVD-RW  DVR-118L   Adapter: 0  ID: 0
Режим чтения                 : Достоверность
Использование точного потока : Да
Отключение кэша аудио        : Да
Использование указателей C2  : Нет
Коррекция смещения при чтении                     : 6
Способность читать области Lead-in и Lead-out     : Нет
Заполнение пропущенных сэмплов тишиной            : Да
Удаление блоков с тишиной в начале и конце        : Нет
При вычислениях CRC использовались нулевые сэмплы : Да
Интерфейс                                         : Установленный внешний ASPI-интерфейс
Выходной формат : Внутренние WAV-операции
Формат сэмплов  : 44.100 Гц; 16 бит; стерео
TOC извлечённого CD
     Трек |   Старт  | Длительность | Начальный сектор | Конечный сектор
    ---------------------------------------------------------------------
       1  |  0:00.00 |    4:24.22   |           0      |      19821
       2  |  4:24.22 |    4:30.20   |       19822      |      40091
       3  |  8:54.42 |    4:48.50   |       40092      |      61741
       4  | 13:43.17 |    5:09.40   |       61742      |      84956
       5  | 18:52.57 |    5:09.13   |       84957      |     108144
       6  | 24:01.70 |    3:59.47   |      108145      |     126116
       7  | 28:01.42 |    4:05.23   |      126117      |     144514
       8  | 32:06.65 |    4:16.40   |      144515      |     163754
       9  | 36:23.30 |    3:50.12   |      163755      |     181016
      10  | 40:13.42 |    4:13.13   |      181017      |     200004
      11  | 44:26.55 |    4:41.65   |      200005      |     221144
      12  | 49:08.45 |    6:43.22   |      221145      |     251391
      13  | 55:51.67 |    0:34.55   |      251392      |     253996
Характеристики диапазона извлечения и сообщения об ошибках
Выбранный диапазон
     Имя файла D:\музыка\flacmusic.ru-Rip by moote\Desireless - Franсois\Desireless - Francois.wav
     Пиковый уровень 99.9 %
     Скорость извлечения 1.3 X
     Качество диапазона 100.0 %
     CRC теста 9D315550
     CRC копии 9D315550
     Копирование... OK
Ошибок не произошло
AccurateRip: сводка
Трек  1  отсутствует в базе данных
Трек  2  отсутствует в базе данных
Трек  3  отсутствует в базе данных
Трек  4  отсутствует в базе данных
Трек  5  отсутствует в базе данных
Трек  6  отсутствует в базе данных
Трек  7  отсутствует в базе данных
Трек  8  отсутствует в базе данных
Трек  9  отсутствует в базе данных
Трек 10  отсутствует в базе данных
Трек 11  отсутствует в базе данных
Трек 12  отсутствует в базе данных
Трек 13  отсутствует в базе данных
Ни одного трека нет в базе AccurateRip
Конец отчёта
==== Контрольная сумма отчёта 292947113321B1DC13050D771A3180E86A3AF008A50A6177DFFB90C2C48CC8B2 ====

Отчёт auCDtect Task manager&#58;

-----------------------
DON'T MODIFY THIS FILE
-----------------------
PERFORMER: auCDtect Task Manager, ver. 1.6.0 RC1 build 1.6.0.1
Copyright (c) 2008-2010 y-soft. All rights reserved
http://y-soft.org
ANALYZER: auCDtect: CD records authenticity detector, version 0.8.2
Copyright (c) 2004 Oleg Berngardt. All rights reserved.
Copyright (c) 2004 Alexander Djourik. All rights reserved.
FILE: Desireless - Francois.flac
  Size: 371052438 Hash: 48900AB282ACC03A8F7720F12E048E15 Accuracy: -m0
  Conclusion: MPEG 95%
  Signature: 9DA5E48B9BBF48C5F64DF28AF1A43C62FD2FC3DC

Содержание индексной карты (.CUE&#41;

REM GENRE Pop
REM DATE 2000
REM DISCID B80D3A0D
REM COMMENT "ExactAudioCopy v1.0b3"
PERFORMER "Desireless"
TITLE "Francois"
FILE "Desireless - Francois.flac" WAVE
  TRACK 01 AUDIO
    TITLE "Voyage, Voyage"
    PERFORMER "Desireless"
    INDEX 01 00:00:00
  TRACK 02 AUDIO
    TITLE "Qui Sommes-Nous?"
    PERFORMER "Desireless"
    INDEX 00 04:22:55
    INDEX 01 04:24:22
  TRACK 03 AUDIO
    TITLE "Animal"
    PERFORMER "Desireless"
    INDEX 00 08:51:55
    INDEX 01 08:54:42
  TRACK 04 AUDIO
    TITLE "Hari Om Ramakrishna"
    PERFORMER "Desireless"
    INDEX 01 13:43:17
  TRACK 05 AUDIO
    TITLE "Tombee D'Une Montagne"
    PERFORMER "Desireless"
    INDEX 01 18:52:57
  TRACK 06 AUDIO
    TITLE "Oublie-Les, Oublie"
    PERFORMER "Desireless"
    INDEX 00 23:58:72
    INDEX 01 24:01:70
  TRACK 07 AUDIO
    TITLE "Les Commencements"
    PERFORMER "Desireless"
    INDEX 00 27:58:57
    INDEX 01 28:01:42
  TRACK 08 AUDIO
    TITLE "Elle Est Commes Les Etoiles"
    PERFORMER "Desireless"
    INDEX 00 32:04:20
    INDEX 01 32:06:65
  TRACK 09 AUDIO
    TITLE "Qui Peut Savoir?"
    PERFORMER "Desireless"
    INDEX 00 36:20:62
    INDEX 01 36:23:30
  TRACK 10 AUDIO
    TITLE "John"
    PERFORMER "Desireless"
    INDEX 00 40:10:32
    INDEX 01 40:13:42
  TRACK 11 AUDIO
    TITLE "Dis Pourquoi"
    PERFORMER "Desireless"
    INDEX 00 44:25:47
    INDEX 01 44:26:55
  TRACK 12 AUDIO
    TITLE "Voyage, Voyage (Maxi Version)"
    PERFORMER "Desireless"
    INDEX 00 49:07:10
    INDEX 01 49:08:45
  TRACK 13 AUDIO
    TITLE "Dis Pourquoi (New Age Mix)"
    PERFORMER "Desireless"
    INDEX 00 55:49:05
    INDEX 01 55:51:67
-
Яндекс.Метрика
Рейтинг@Mail.ru