General Base - "First" (1993) [FLAC|Lossless]<Eurodance, Techno>

 

Создавать темы 17-Дек-2014 11:54

-General Base - "First" (1993)- Лейбл: Roughmix
Каталог: RTD 176.1600.2
Год: 1993
Жанр: Eurodance, Techno
Продолжительность: 01:02:33
Кодек: FLAC
Битрейт: Lossless
Трек лист:
01. Intro
02. Back Again
03. In Trance
04. Poison
05. First
06. Apache
07. Peace
08. Just Hold On
09. Time Out
10. Marilyn Monroe
11. Bidi, Bidi, Do You Wanna Dance
12. Mein Gott, Es Ist Voller Sterne
13. Poison (Paradise Radio Edit)
14. Apache (Interactive Remix)
15. Base Of Love

Дополнительная информация&#58;

General Base – основателем является германский DJ Thomas Kukula.
Первой работой General Base стал сингл "Mein Gott, Es Ist Voller Sterne" вышедший в 1991-м году, затем в 1992-м последовали синглы "Back Again" и "In Trance", которые стали очень популярны в Великобритании.
Но мировой успех пришел в 1993-м году с песнями "Apache" и "Poison", вокал для "Poison" записала примадонна диско Claudja Barry. В том же году вышел первый и единственный полноразмерный альбом "First", после него были только синглы.
Спасибо mitja76

Отчёт ЕАС&#58;

Exact Audio Copy V0.99 prebeta 5 from 4. May 2009
Отчёт EAC об извлечении, выполненном 15. ноября 2009, 18:34
General Base / First
Дисковод: PHILIPS DVDR1660P1   Adapter: 1  ID: 1
Режим чтения                 : Достоверность
Использование точного потока : Да
Отключение кэша аудио        : Да
Использование указателей C2  : Нет
Коррекция смещения при чтении                     : 618
Способность читать области Lead-in и Lead-out     : Нет
Заполнение пропущенных сэмплов тишиной            : Да
Удаление блоков с тишиной в начале и конце        : Нет
При вычислениях CRC использовались нулевые сэмплы : Да
Интерфейс                                         : Встроенный Win32-интерфейс для Win NT/2000
Выходной формат : Внутренние WAV-операции
Формат сэмплов  : 44.100 Гц; 16 бит; стерео
TOC извлечённого CD
     Трек |   Старт  | Длительность | Начальный сектор | Конечный сектор
    ---------------------------------------------------------------------
       1  |  0:00.00 |    2:03.70   |           0      |       9294
       2  |  2:03.70 |    3:50.20   |        9295      |      26564
       3  |  5:54.15 |    4:01.73   |       26565      |      44712
       4  |  9:56.13 |    5:20.59   |       44713      |      68771
       5  | 15:16.72 |    3:50.16   |       68772      |      86037
       6  | 19:07.13 |    4:29.57   |       86038      |     106269
       7  | 23:36.70 |    4:46.03   |      106270      |     127722
       8  | 28:22.73 |    4:01.42   |      127723      |     145839
       9  | 32:24.40 |    4:03.48   |      145840      |     164112
      10  | 36:28.13 |    4:05.20   |      164113      |     182507
      11  | 40:33.33 |    4:11.25   |      182508      |     201357
      12  | 44:44.58 |    4:33.47   |      201358      |     221879
      13  | 49:18.30 |    3:43.15   |      221880      |     238619
      14  | 53:01.45 |    5:51.28   |      238620      |     264972
      15  | 58:52.73 |    3:40.17   |      264973      |     281489
Характеристики диапазона извлечения и сообщения об ошибках
Выбранный диапазон
     Имя файла F:\Downloads\General Base - First (CD-1993-Flac)\General Base - First.wav
     Пиковый уровень 99.0 %
     Качество диапазона 100.0 %
     CRC теста 0D4F2B23
     CRC копии 0D4F2B23
     Копирование... OK
Ошибок не произошло
AccurateRip: сводка
Трек  1  точное извлечение (доверие 1)  [8CAC2270]
Трек  2  точное извлечение (доверие 1)  [0C856069]
Трек  3  точное извлечение (доверие 1)  [1A3618CC]
Трек  4  точное извлечение (доверие 1)  [96073F40]
Трек  5  точное извлечение (доверие 1)  [551B95EC]
Трек  6  точное извлечение (доверие 1)  [9E8E1965]
Трек  7  точное извлечение (доверие 1)  [069151C1]
Трек  8  точное извлечение (доверие 1)  [2D9C1069]
Трек  9  точное извлечение (доверие 1)  [89CC85D1]
Трек 10  точное извлечение (доверие 1)  [A43BD246]
Трек 11  точное извлечение (доверие 1)  [BEFE9FC1]
Трек 12  точное извлечение (доверие 1)  [C193DC64]
Трек 13  точное извлечение (доверие 1)  [0D2F65E0]
Трек 14  точное извлечение (доверие 1)  [49B4DE9C]
Трек 15  точное извлечение (доверие 1)  [48EA15D1]
Все треки извлечены точно
Конец отчёта

Отчёт auCDtect Task manager&#58;

-----------------------
DON'T MODIFY THIS FILE
-----------------------
PERFORMER: auCDtect Task Manager, ver. 1.5.1RC4 build 1.5.1.5
Copyright (c) 2008-2010 y-soft. All rights reserved
http://y-soft.org
ANALYZER: auCDtect: CD records authenticity detector, version 0.8.2
Copyright (c) 2004 Oleg Berngardt. All rights reserved.
Copyright (c) 2004 Alexander Djourik. All rights reserved.
FILE: General Base - First.flac
  Size: 471365870 Hash: 783FCA802BE5006C03E0E6F6A8E045EA Accuracy: -m0
  Conclusion: CDDA 100%
  Signature: AA3D2F28549C7088C0B7D8B2D77B4702B1A8C1FD
Время раздачи: 24/7 до 5-ти скачавших
Яндекс.Метрика
Рейтинг@Mail.ru