VA - Dancefloor Hits 1992-1996 (2 CD) (2000) [FLAC|Lossless]<Рор>

 

Создавать темы 17-Дек-2014 11:57

- VA - Dancefloor Hits 1992-1996 (2 CD)- Год: 2000
Страна: Germany
Жанр: Рор, Eurodance
Продолжительность: 02:31:52
Кодек: FLAC (image + .cue)
Битрейт: Lossless-CD 1
Продолжительность: 01:17:22
Треклист:
01 Snap! - Rhythm Is A Dancer (7" Edit) 3:41
02 Culture Beat - Mr. Vain (Special Radio Edit) 4:17
03 La Bouche - Be My Lover (Radio Edit) 3:59
04 Corona - The Rhythm Of The Night (Radio Edit) 4:20
05 Playahitty - The Summer Is Magic (Radio Mix) 3:44
06 ICE MC - Think About The Way (Radio Mix) 4:16
07 Maxx - No More (I Can't Stand It) (Airplay Mix) 3:44
08 Haddaway - Life (Radio Edit) 4:15
09 Mr. President - Up'n Away (Lazy D. Version) 3:53
Featuring - Lazy D
10 DJ BoBo - Keep On Dancing (Classic Radio Mix) 3:31
11 Prince Ital Joe Feat. Marky Mark - Happy People (Album Version) 3:58
12 Jam & Spoon - Right In The Night (Fall In Love With Music) (Radio Edit) 3:47
Vocals - Plavka
13 Captain Hollywood Project - More And More (Single Version) 4:11
14 Masterboy - Feel The Heat Of The Night (Radio Edit) 3:46
15 2 Unlimited - No Limit (Radio Edit) 3:15
16 Felix - Don't You Want Me (Hooj Mix Edit) 3:11
Remix - Red Jerry , Rollo
17 U96 - Heaven (Video Version) 3:36
Vocals - Dea-Li
18 Odyssey (4) - Move Your Body (Radio Edit) 3:47
Vocals - LC
19 K.O.'s Feat. M. Buffer - Let's Get Ready To Rumble (Radio Version) 3:43
Vocals - Michael Buffer
20 Whigfield - Saturday Night (Radio Mix)

Отчёт Audiochecker&#58;

AUDIOCHECKER v2.0 beta (build 457) - by Dester - [url=mailto:[email protected]][email protected][/url]
~~~~~~~~~~~~~~~~~~~~~~~~~~~~~~~~~~
-=== НЕ РЕДАКТИРУЙТЕ ЭТОТ ФАЙЛ! ===-
Путь: ...\CD 1
1 -=- Various - Dancefloor Hits 1992-1996 (CD 01).flac -=- CDDA (100%)
17310244

Лог EAC

Exact Audio Copy V0.99 prebeta 5 from 4. May 2009
Отчёт EAC об извлечении, выполненном 31. декабря 2009, 13:42
Various / Dancefloor Hits 1992-1996 (CD 01)
Дисковод: PHILIPS DVDR1660P1 Adapter: 1 ID: 1
Режим чтения : Достоверность
Использование точного потока : Да
Отключение кэша аудио : Да
Использование указателей C2 : Нет
Коррекция смещения при чтении : 618
Способность читать области Lead-in и Lead-out : Нет
Заполнение пропущенных сэмплов тишиной : Да
Удаление блоков с тишиной в начале и конце : Нет
При вычислениях CRC использовались нулевые сэмплы : Да
Интерфейс : Встроенный Win32-интерфейс для Win NT/2000
Выходной формат : Внутренние WAV-операции
Формат сэмплов : 44.100 Гц; 16 бит; стерео
TOC извлечённого CD
Трек | Старт | Длительность | Начальный сектор | Конечный сектор
---------------------------------------------------------------------
1 | 0:00.00 | 3:41.35 | 0 | 16609
2 | 3:41.35 | 4:17.74 | 16610 | 35958
3 | 7:59.34 | 4:00.47 | 35959 | 54005
4 | 12:00.06 | 4:23.00 | 54006 | 73730
5 | 16:23.06 | 3:55.74 | 73731 | 91429
6 | 20:19.05 | 4:20.26 | 91430 | 110955
7 | 24:39.31 | 3:44.17 | 110956 | 127772
8 | 28:23.48 | 4:16.14 | 127773 | 146986
9 | 32:39.62 | 3:55.11 | 146987 | 164622
10 | 36:34.73 | 3:33.68 | 164623 | 180665
11 | 40:08.66 | 3:58.53 | 180666 | 198568
12 | 44:07.44 | 3:48.19 | 198569 | 215687
13 | 47:55.63 | 3:55.45 | 215688 | 233357
14 | 51:51.33 | 3:41.46 | 233358 | 249978
15 | 55:33.04 | 3:17.31 | 249979 | 264784
16 | 58:50.35 | 3:09.25 | 264785 | 278984
17 | 61:59.60 | 3:38.20 | 278985 | 295354
18 | 65:38.05 | 3:51.72 | 295355 | 312751
19 | 69:30.02 | 3:45.70 | 312752 | 329696
20 | 73:15.72 | 4:06.57 | 329697 | 348203
Характеристики диапазона извлечения и сообщения об ошибках
Выбранный диапазон
Имя файла F:\Downloads\VA - Dancefloor Hits 1992-1996 (2CD-2000-Flac)\CD 1\Various - Dancefloor Hits 1992-1996 (CD 01).wav
Пиковый уровень 99.9 %
Качество диапазона 100.0 %
CRC теста CAF9C342
CRC копии CAF9C342
Копирование... OK
Ошибок не произошло
AccurateRip: сводка
Трек 1 точное извлечение (доверие 3) [2C909123]
Трек 2 точное извлечение (доверие 3) [1F85B2E6]
Трек 3 точное извлечение (доверие 3) [C48CFC1E]
Трек 4 точное извлечение (доверие 3) [6D6D19FD]
Трек 5 точное извлечение (доверие 3) [C2F7E749]
Трек 6 точное извлечение (доверие 3) [1CC8BDF8]
Трек 7 точное извлечение (доверие 3) [BE5FB2D7]
Трек 8 точное извлечение (доверие 3) [E927EAF4]
Трек 9 точное извлечение (доверие 3) [A0A42265]
Трек 10 точное извлечение (доверие 3) [B2FAAAA2]
Трек 11 точное извлечение (доверие 3) [7536268B]
Трек 12 точное извлечение (доверие 3) [C519CA71]
Трек 13 точное извлечение (доверие 3) [2E7DD424]
Трек 14 точное извлечение (доверие 3) [38559F89]
Трек 15 точное извлечение (доверие 3) [CB9BDAC6]
Трек 16 точное извлечение (доверие 3) [6284D99C]
Трек 17 точное извлечение (доверие 3) [F8F4B883]
Трек 18 точное извлечение (доверие 3) [2DE3F1D3]
Трек 19 точное извлечение (доверие 3) [D3FA0812]
Трек 20 точное извлечение (доверие 3) [9676C653]
Все треки извлечены точно
Конец отчёта
-

CD 2

Продолжительность: 01:14:30
Треклист:
01 Double You - Please Don't Go (Radio Mix) 3:18
02 Twenty 4 Seven - Slave To The Music (Ultimate Dance Single Mix) 4:01
03 Pharao - I Show You Secrets (Video Version) 4:02
04 Dr. Alban - Look Who's Talking (Short) 3:13
05 Real McCoy - Another Night (Album Version) 3:55
06 Urban Cookie Collective - The Key, The Secret (Glamourously Developed Edit) 3:42
07 Magic Affair - In The Middle Of The Night (Maxi Edit) 6:20
08 Love Message - Love Message (Radio Edit) 3:47
09 B.G. The Prince Of Rap - The Colour Of My Dreams (Dreamedia Mix) 3:54
10 Cappella - U Got 2 Let The Music (R.A.F. Zone Mix) 5:33
Remix - R.A.F.
11 Intermission Feat. Lori Glori - Six Days (Airplay Edit) 3:44
Featuring - Lori Glori
12 E-Rotic - Max Don't Have Sex With Your Ex (Radio Edit) 3:31
Vocals - Lyane Leigh
13 General Base - Base Of Love (Radio Logic Edit) 3:39
Vocals - Sarah
14 Three-O-Matic - Success (Radio Mix/Video Version) 3:41
15 Me & My - Dub I Dub (Radio Version) 3:21
16 Loft - Love Is Magic (Radio Edit) 3:43
17 Bang! - You Know, I Know (The Game Of Love) (Radio Soft Mix) 3:12
18 K. Da Cruz - New High Energy (Single Mix) 3:58
19 Cut 'N' Move - Give It Up (Album Version) 4:22
20 Scatman John - Scatman (Ski-Ba-Bop-Ba-Dop-Bop) (Basic Radio) 3:31

Отчёт Audiochecker&#58;

AUDIOCHECKER v2.0 beta (build 457) - by Dester - [url=mailto:[email protected]][email protected][/url]
~~~~~~~~~~~~~~~~~~~~~~~~~~~~~~~~~~
-=== НЕ РЕДАКТИРУЙТЕ ЭТОТ ФАЙЛ! ===-
Путь: ...\CD 2
1 -=- Various - Dancefloor Hits 1992-1996 CD2.flac -=- CDDA (100%)
229081556

Лог EAC

Exact Audio Copy V0.99 prebeta 5 from 4. May 2009
Отчёт EAC об извлечении, выполненном 31. декабря 2009, 14:20
Various / Dancefloor Hits 1992-1996 CD2
Дисковод: PHILIPS DVDR1660P1 Adapter: 1 ID: 1
Режим чтения : Достоверность
Использование точного потока : Да
Отключение кэша аудио : Да
Использование указателей C2 : Нет
Коррекция смещения при чтении : 618
Способность читать области Lead-in и Lead-out : Нет
Заполнение пропущенных сэмплов тишиной : Да
Удаление блоков с тишиной в начале и конце : Нет
При вычислениях CRC использовались нулевые сэмплы : Да
Интерфейс : Встроенный Win32-интерфейс для Win NT/2000
Выходной формат : Внутренние WAV-операции
Формат сэмплов : 44.100 Гц; 16 бит; стерео
TOC извлечённого CD
Трек | Старт | Длительность | Начальный сектор | Конечный сектор
---------------------------------------------------------------------
1 | 0:00.00 | 3:15.54 | 0 | 14678
2 | 3:15.54 | 4:03.65 | 14679 | 32968
3 | 7:19.44 | 4:10.60 | 32969 | 51778
4 | 11:30.29 | 3:13.08 | 51779 | 66261
5 | 14:43.37 | 3:58.39 | 66262 | 84150
6 | 18:42.01 | 3:41.52 | 84151 | 100777
7 | 22:23.53 | 4:08.51 | 100778 | 119428
8 | 26:32.29 | 3:47.48 | 119429 | 136501
9 | 30:20.02 | 3:54.14 | 136502 | 154065
10 | 34:14.16 | 3:31.21 | 154066 | 169911
11 | 37:45.37 | 3:43.44 | 169912 | 186680
12 | 41:29.06 | 3:30.54 | 186681 | 202484
13 | 44:59.60 | 3:40.14 | 202485 | 218998
14 | 48:39.74 | 3:41.00 | 218999 | 235573
15 | 52:20.74 | 3:21.01 | 235574 | 250649
16 | 55:42.00 | 3:44.36 | 250650 | 267485
17 | 59:26.36 | 3:11.20 | 267486 | 281830
18 | 62:37.56 | 3:59.34 | 281831 | 299789
19 | 66:37.15 | 4:22.19 | 299790 | 319458
20 | 70:59.34 | 3:30.72 | 319459 | 335280
Характеристики диапазона извлечения и сообщения об ошибках
Выбранный диапазон
Имя файла F:\Downloads\VA - Dancefloor Hits 1992-1996 (2CD-2000-Flac)\CD 2\Various - Dancefloor Hits 1992-1996 CD2.wav
Пиковый уровень 97.9 %
Качество диапазона 100.0 %
CRC теста 0828FF52
CRC копии 0828FF52
Копирование... OK
Ошибок не произошло
AccurateRip: сводка
Трек 1 точное извлечение (доверие 3) [4D735B3D]
Трек 2 точное извлечение (доверие 3) [E0AC7F83]
Трек 3 точное извлечение (доверие 3) [C58118CF]
Трек 4 точное извлечение (доверие 3) [E657B3BE]
Трек 5 точное извлечение (доверие 3) [72078F31]
Трек 6 точное извлечение (доверие 3) [DE9A85D7]
Трек 7 точное извлечение (доверие 3) [A02DD0B8]
Трек 8 точное извлечение (доверие 3) [FA68678C]
Трек 9 точное извлечение (доверие 3) [4CE41982]
Трек 10 точное извлечение (доверие 3) [7829E896]
Трек 11 точное извлечение (доверие 3) [69E1A5D7]
Трек 12 точное извлечение (доверие 3) [DC8A28F7]
Трек 13 точное извлечение (доверие 3) [5F0B1E99]
Трек 14 точное извлечение (доверие 3) [5BD1B558]
Трек 15 точное извлечение (доверие 3) [8FCC27E1]
Трек 16 точное извлечение (доверие 3) [7F250BFF]
Трек 17 точное извлечение (доверие 3) [73622A1D]
Трек 18 точное извлечение (доверие 3) [344D3516]
Трек 19 точное извлечение (доверие 3) [BDB7BB1D]
Трек 20 точное извлечение (доверие 3) [379C778E]
Все треки извлечены точно
Конец отчёта
-


Последний раз редактировалось: шарик-off (2014-12-20 21:47), всего редактировалось 4 раз(а)

Создавать темы 17-Дек-2014 14:03 (спустя 2 часа 6 минут)

Благодарю.
Яндекс.Метрика
Рейтинг@Mail.ru