Военный корреспондент (Павел Игнатов) [2014 г., Боевик, SATRip]

 

Создавать темы 19-Дек-2014 17:43

-Военный корреспондент-- Производство: Россия
Год выпуска: 2014 г.
Жанр: Боевик
Продолжительность: 01:37:27-Режиссер: Павел Игнатов-В ролях: Вольфганг Черны, Ольга Виниченко, Али Алиев, Антон Ерёмин, Ян Цапник, Максим Щеголев, Евгений Орехов-Описание: Американский репортер Мэт Маккью привык доверять только фактам. За его плечами - Афганистан, Ливия, Ирак... и высочайшие телевизионные награды в области журналистики. После того как в далекой и непонятной для большинства американцев Украине произошла очередная смена власти, Мэт по заданию информационного канала отправляется туда... Американский журналист оказывается на востоке Украины. Он всего лишь пытается рассказать правду об этой войне, но Вашингтон обвиняет его в предательстве, а в Киеве объявляют шпионом.- -Качество видео: SATRip
Контейнер: AVI
Видео кодек: XviD
Аудио кодек: AC3
Видео: 704x384, 25,000 fps, 1875 kbps avg, 0.278 bit/pixel
Аудио: 48 kHz, AC3 Dolby Digital, 2 ch, ~192 kbps
Cубтитры: отсутствуют-

Media Info

Общее
Полное имя : C:\Users\Ромик\Pictures\Военный корреспондент\Voennyi.Korrespondent.2014.SATRip.avi
Формат : AVI
Формат/Информация : Audio Video Interleave
Размер файла : 1,41 Гбайт
Продолжительность : 1 ч. 37 м.
Общий поток : 2077 Кбит/сек
Название фильма : Voennyi.Korrespondent.2014.SATRip
Программа кодирования : VirtualDubMod 1.5.10.2 (build 2540/release)
Примечание : http://pirat.ca
Видео
Идентификатор : 0
Формат : MPEG-4 Visual
Профиль формата : Advanced [email protected]
Параметр BVOP формата : 1
Параметр QPel формата : Нет
Параметр GMC формата : Без точки перехода
Параметр матрицы формата : Default (MPEG)
Идентификатор кодека : XVID
Идентификатор кодека/Подсказка : XviD
Продолжительность : 1 ч. 37 м.
Битрейт : 1875 Кбит/сек
Ширина : 704 пикселя
Высота : 384 пикселя
Соотношение сторон : 1,85:1
Частота кадров : 25,000 кадров/сек
Цветовое пространство : YUV
Субдискретизация насыщенности : 4:2:0
Битовая глубина : 8 бит
Тип развёртки : Прогрессивная
Метод сжатия : С потерями
Бит/(Пиксели*Кадры) : 0.278
Размер потока : 1,28 Гбайт (90%)
Библиотека кодирования : XviD 65
Аудио
Идентификатор : 1
Формат : AC-3
Формат/Информация : Audio Coding 3
Расширение режима : CM (complete main)
Параметр Endianness формата : Big
Идентификатор кодека : 2000
Продолжительность : 1 ч. 37 м.
Вид битрейта : Постоянный
Битрейт : 192 Кбит/сек
Каналы : 2 канала
Расположение каналов : Front: L R
Частота : 48,0 КГц
Битовая глубина : 16 бит
Метод сжатия : С потерями
Размер потока : 134 Мбайт (9%)
Выравнивание : Разделение по промежуткам
Продолжительность промежутка : 40 мс. (1,00 видеокадр)
Время предзагрузки промежутка : 500 мс.
-

Скриншоты

-
Яндекс.Метрика
Рейтинг@Mail.ru